Ріо / Rio (2011) 720p Ukr/Eng | Sub Ukr/Eng (60fps)

Нові коментарі

Нова тема   Відповісти
Автор Повідомлення
Drool 
VIP


З нами з: 17.04.10
Востаннє: 21.08.17
Повідомлень: 1374

2014-07-08 08:52  
Ріо / Rio (2011) 720p Ukr/Eng | Sub Ukr/Eng (60fps)

Жанр: анімація, пригодницький, комедія, сімейний
Країна: США



Кінокомпанія: Blue Sky Studios, Twentieth Century Fox Animation
Режисер: Карлос Салдана
Актори: Карен Дішер, Джейсон Фріччіон, Софія Скарпа Салдана, Леслі Манн, Келлі Кітон, Джессі Айзенберг, Ванда Сайкес, Джейн Лінч, Родріго Санторо, Грасінья Лепоранс

Сюжет:
Папуга-зануда залишає своє затишне та сите життя в клітці та з Міннесоти вирушає в Ріо-де-Жанейро, місто мрій усіх та кожного. Неминучі зустрічі, перешкоди, небезпеки та любов до останньої представниці свого виду змусять нашого героя по-іншому подивитись на світ та із нудного домосіда перетворитись на милого симпатягу.


Тривалість: 01:35:37
Якість:
Відео:
кодек:
розмір кадру: 1280x534
бітрейт: 10.9 Мб/с
частота кадрів: 59.940 кадрів/с

Аудіо # 1:
мова: українська
переклад: професійний дубльований
кодек: 5.1
бітрейт: 448 кб/с

Аудіо # 2:
мова: англійська
переклад: оригінал
кодек: 5.1
бітрейт: 448 кб/с

Джерело озвучення:


Субтитри:
мова: українська
тип: програмні (м'які)
формат: *.srt

Субтитри:
мова: англійська
тип: програмні (м'які)
формат: *.srt
Info
General
Unique ID : 41271074159123276291212717525694438176 (0x1F0C850EBAD105F38F477BDEAAB05B20)
Complete name : /mnt/disk_d/Video/Rio.2011.Ukr.Eng.Dub..720p.60fps.
Format :
Format version : Version 4 / Version 2
File size : 7.86 GiB
Duration : 1h 35mn
Overall bit rate : 11.7 Mbps
Movie name : Ріо / Rio (2011) 720p (60fps) [NNNB, envy]
Encoded date : UTC 2010-02-22 21:41:31
Writing application : mkvmerge v6.1.0 ('Old Devil') built on Apr 14 2013 12:25:55
Writing library : libebml v1.3.0 + libmatroska v1.4.0

Video
ID : 1
Format : AVC
Format/Info : Advanced Video Codec
Format profile : [email protected]
Format settings, CABAC : Yes
Format settings, ReFrames : 11 frames
Codec ID : V_MPEG4/ISO/AVC
Duration : 1h 35mn
Bit rate : 10.9 Mbps
Width : 1 280 pixels
Height : 534 pixels
Display aspect ratio : 2.40:1
Frame rate : 59.940 fps
Color space : YUV
Chroma subsampling : 4:2:0
Bit depth : 8 bits
Scan type : Progressive
Bits/(Pixel*Frame) : 0.265
Stream size : 7.10 GiB (90%)
Title : Ріо / Rio (2011) 720p (60fps) [NNNB, envy]
Writing library : core 140 r2377 1ca7bb9
Encoding settings : cabac=1 / ref=11 / deblock=1:0:0 / analyse=0x3:0x133 / me=umh / subme=11 / psy=1 / psy_rd=1.00:0.00 / mixed_ref=1 / me_range=32 / chroma_me=1 / trellis=2 / 8x8dct=1 / cqm=0 / deadzone=21,11 / fast_pskip=0 / chroma_qp_offset=-2 / threads=12 / lookahead_threads=2 / sliced_threads=0 / nr=0 / decimate=1 / interlaced=0 / bluray_compat=0 / constrained_intra=0 / bframes=7 / b_pyramid=2 / b_adapt=2 / b_bias=0 / direct=3 / weightb=1 / open_gop=0 / weightp=2 / keyint=250 / keyint_min=25 / scenecut=40 / intra_refresh=0 / rc=2pass / mbtree=0 / bitrate=10854 / ratetol=2.0 / qcomp=0.60 / qpmin=0 / qpmax=69 / qpstep=4 / cplxblur=20.0 / qblur=0.5 / ip_ratio=1.40 / pb_ratio=1.30 / aq=1:0.80
Language : English
Default : Yes
Forced : No

Audio #1
ID : 2
Format : AC-3
Format/Info : Audio Coding 3
Mode extension : CM (complete main)
Codec ID : A_AC3
Duration : 1h 35mn
Bit rate mode : Constant
Bit rate : 448 Kbps
Channel(s) : 6 channels
Channel positions : Front: L C R, Side: L R, LFE
Sampling rate : 48.0 KHz
Bit depth : 16 bits
Compression mode : Lossy
Stream size : 308 MiB (4%)
Title : Український професійний дубльований переклад - Blu-ray [ 5.1; 448 кб/с]
Language : Ukrainian
Default : Yes
Forced : No

Audio #2
ID : 3
Format : AC-3
Format/Info : Audio Coding 3
Mode extension : CM (complete main)
Codec ID : A_AC3
Duration : 1h 35mn
Bit rate mode : Constant
Bit rate : 448 Kbps
Channel(s) : 6 channels
Channel positions : Front: L C R, Side: L R, LFE
Sampling rate : 48.0 KHz
Bit depth : 16 bits
Compression mode : Lossy
Stream size : 308 MiB (4%)
Title : Оригінал
Language : English
Default : No
Forced : No

Text #1
ID : 4
Format : UTF-8
Codec ID : S_TEXT/UTF8
Codec ID/Info : UTF-8 Plain Text
Title : Українські субтитри - Blu-ray
Language : Ukrainian
Default : Yes
Forced : No

Text #2
ID : 5
Format : UTF-8
Codec ID : S_TEXT/UTF8
Codec ID/Info : UTF-8 Plain Text
Title : eng
Language : English
Default : No
Forced : No

Menu
00:00:00.000 : :Chapter 01
00:06:34.852 : :Chapter 02
00:12:16.569 : :Chapter 03
00:16:13.138 : :Chapter 04
00:21:29.496 : :Chapter 05
00:23:46.007 : :Chapter 06
00:28:57.193 : :Chapter 07
00:34:11.841 : :Chapter 08
00:36:53.461 : :Chapter 09
00:39:27.615 : :Chapter 10
00:43:17.761 : :Chapter 11
00:45:48.454 : :Chapter 12
00:50:03.083 : :Chapter 13
00:52:58.216 : :Chapter 14
00:57:37.287 : :Chapter 15
01:00:49.646 : :Chapter 16
01:03:39.690 : :Chapter 17
01:07:57.364 : :Chapter 18
01:11:47.511 : :Chapter 19
01:15:32.027 : :Chapter 20
01:19:40.942 : :Chapter 21
01:21:19.332 : :Chapter 22
01:23:43.476 : :Chapter 23
01:26:38.902 : :Chapter 24
Скріншоти



Джерело:
Особиста оцінка: 10 - без зайвих вагань рекомендую всім!


 Трекер:    Зареєстрований   

Завантажити / скачати мультфільм українською



відео для новачків



 Зареєстрований:   2014-07-08 08:56
 Розмір:   7.86 GB 
 Оцінка мультфільму:   9.2/10 (Голосів: 11)
   
Інші релізи
   Ріо / Rio (2011) 1080р Ukr/Eng | Sub Eng kvvdvd  7 / 0   7.33 GB   2016-11-22 03:03 
   Ріо / Rio (2011) 720p Ukr/Eng | Sub Ukr/Eng Dim-ON  5 / 0   4.33 GB   2011-12-05 00:49 
   Ріо / Rio (2011) FaB0SS  4 / 0   745 MB   2011-08-11 20:15 
   Ріо / Rio (2011) 720p-mini Drool  1 / 0   1.39 GB   2011-07-10 11:05 
   Ріо / Rio (2011) [iPod Touch,480x200] Бузьок  1 / 0   283 MB   2011-06-11 21:31 
Ваш часовий пояс: GMT + 2 Години

Нова тема   Відповісти