Ворог держави / Enemy of the State (1998) 720p Ukr/Eng

Нові коментарі

Нова тема   Відповісти
Автор Повідомлення
Krysztal 
Новенький


З нами з: 04.07.14
Востаннє: 13.12.17
Повідомлень: 10

2014-07-06 08:42  
Ворог держави / Enemy of the State (1998) 720p Ukr/Eng

Ворог держави / Enemy of the State (1998) 720p Ukr/Eng


Жанр: бойовик, трилер, драма
Країна: США



Кінокомпанія: Don Simpson/Jerry Bruckheimer Films | Jerry Bruckheimer Films | No Such Productions | Scott Free Productions | Touchstone Pictures
Режисер: Тоні Скотт
Актори: Уілл Сміт, Джин Хекмен, Беррі Пеппер, Джон Войт, Реджіна Кінг, Іен Харт, Ліза Бонет, Джейк Бьюзі, Скотт Каан, Джеймі Кенеді

Сюжет:
Незвичайний збіг обставин несподівано завдає потужного удару по блискучій кар'єрі і щасливому родинному життю адвоката Роберта Діна: його звинувачують у вбивстві, якого він не здійснював. Дін розуміє, що це пов'язано з політичними інтригами загальнонаціонального масштабу.
Його противником виявляється керівник великого департаменту "Агентства національної безпеки" Томас Брайан Рейнольдс. Діна позбавляють престижної високооплачуваної роботи, сім'ї і він перетворюється на справжнього ворога держави.


Тривалість: 02:12:11
Якість:
Відео:
кодек:
розмір кадру: 1280 х 542
бітрейт: 3964 кб/с

Аудіо # 1:
мова: українська
переклад: багатоголосий закадровий
кодек: 5.1
бітрейт: 384 кб/с

Аудіо # 2:
мова: англійська
переклад: оригінал
кодек: 5.1
бітрейт: 384 кб/с

Джерело озвучення:
Info
General
Unique ID : 236827199545569185520499707548613057020 (0xB22B42703B4A094986E42D42946999FC)
Complete name : D:\Video\BDMV\STREAM\00000 (1).
Format :
Format version : Version 2
File size : 4.37 GiB
Duration : 2h 12mn
Overall bit rate : 4 733 Kbps
Encoded date : UTC 2014-07-02 13:13:07
Writing application : mkvmerge v4.6.0 ('Still Crazy After All These Years') зібрано Mar 10 2011 02:50:32
Writing library : libebml v1.2.0 + libmatroska v1.1.0

Video
ID : 1
Format : AVC
Format/Info : Advanced Video Codec
Format profile : [email protected]
Format settings, CABAC : Yes
Format settings, ReFrames : 4 frames
Codec ID : V_MPEG4/ISO/AVC
Duration : 2h 12mn
Bit rate : 3 964 Kbps
Width : 1 280 pixels
Height : 542 pixels
Display aspect ratio : 2.35:1
Frame rate mode : Constant
Frame rate : 23.976 fps
Color space : YUV
Chroma subsampling : 4:2:0
Bit depth : 8 bits
Scan type : Progressive
Bits/(Pixel*Frame) : 0.238
Stream size : 3.57 GiB (82%)
Title : Ворог держави / Enemy of the State (1998) 720p
Writing library : core 138 r2358 9e941d1
Encoding settings : cabac=1 / ref=3 / deblock=1:-3:-3 / analyse=0x3:0x113 / me=umh / subme=10 / psy=1 / psy_rd=1.00:0.00 / mixed_ref=1 / me_range=64 / chroma_me=1 / trellis=2 / 8x8dct=1 / cqm=0 / deadzone=21,11 / fast_pskip=0 / chroma_qp_offset=-2 / threads=3 / lookahead_threads=1 / sliced_threads=0 / nr=0 / decimate=1 / interlaced=0 / bluray_compat=0 / constrained_intra=0 / bframes=3 / b_pyramid=2 / b_adapt=1 / b_bias=0 / direct=1 / weightb=1 / open_gop=0 / weightp=2 / keyint=240 / keyint_min=23 / scenecut=40 / intra_refresh=0 / rc_lookahead=40 / rc=2pass / mbtree=1 / bitrate=3964 / ratetol=1.0 / qcomp=0.60 / qpmin=10 / qpmax=51 / qpstep=4 / cplxblur=20.0 / qblur=0.5 / vbv_maxrate=62500 / vbv_bufsize=78125 / nal_hrd=none / ip_ratio=1.40 / aq=1:1.00
Default : Yes
Forced : No

Audio #1
ID : 2
Format : AC-3
Format/Info : Audio Coding 3
Mode extension : CM (complete main)
Format settings, Endianness : Big
Codec ID : A_AC3
Duration : 2h 12mn
Bit rate mode : Constant
Bit rate : 384 Kbps
Channel count : 6 channels
Channel positions : Front: L C R, Side: L R, LFE
Sampling rate : 48.0 KHz
Bit depth : 16 bits
Compression mode : Lossy
Stream size : 363 MiB (8%)
Language : Ukrainian
Default : Yes
Forced : No

Audio #2
ID : 3
Format : AC-3
Format/Info : Audio Coding 3
Mode extension : CM (complete main)
Format settings, Endianness : Big
Codec ID : A_AC3
Duration : 2h 12mn
Bit rate mode : Constant
Bit rate : 384 Kbps
Channel count : 6 channels
Channel positions : Front: L C R, Side: L R, LFE
Sampling rate : 48.0 KHz
Bit depth : 16 bits
Compression mode : Lossy
Stream size : 363 MiB (8%)
Language : English
Default : No
Forced : No
Скріншоти




Джерело:
Особиста оцінка: 10 - без зайвих вагань рекомендую всім!


Срібний реліз (на рейтинг впливає 50% завантаженого)
 Трекер:    Зареєстрований   

Завантажити / скачати фільм українською



відео для новачків



 Зареєстрований:   2014-07-06 08:42
 Розмір:   4.37 GB 
 Оцінка фільму:   8.5/10 (Голосів: 15)
   
Інші релізи
ratbol 
Модератор HD


З нами з: 03.02.09
Востаннє: 11.12.17
Повідомлень: 1076

2014-07-06 10:53  
Це озвучення не з блюрей! Швидше за все багатолоска записана з К1.
Також є двоголоска записана з 1+1. Додайте і її.

Krysztal 
Новенький


З нами з: 04.07.14
Востаннє: 13.12.17
Повідомлень: 10

2014-07-06 11:01  
Цитата:
Це озвучення не з блюрей! Швидше за все багатолоска записана з К1.
Також є двоголоска записана з 1+1. Додайте і її.


доріжку як і відео взято з Blu-ray диску. З 1+1 не додам, бо не влізе в DVD 5. А якби додав раніше то бітрейт був би ще менший.

ratbol 
Модератор HD


З нами з: 03.02.09
Востаннє: 11.12.17
Повідомлень: 1076

2014-07-07 14:54  
Ще раз кажу дане озвучення не з блюрей! Існує два укр. озвучення. Багатоголоска з К1 і двоголоска з 1+1. Заберіть банер блюрея.
NeetScrool 
Відео Гуртом - фільмокрай
Відео Гуртом - фільмокрай


З нами з: 10.01.13
Востаннє: 14.12.17
Повідомлень: 2720

2014-07-07 15:34  
Krysztal написано:
Актори: Уілл Сміт, Джин Хекмен, Беррі Пеппер, Джон Войт, Реджіна Кінг, Іен Харт, Ліза Бонет, Джейк Бьюзі, Скотт Каан, Джеймі Кенеді

Зробіть транслітерацію згідно оф. укр. системи, а не за системою мовою окупанта як у вас.

http://sdip.gov.ua/t/docman/binary/trans/04ND41.doc

Krysztal 
Новенький


З нами з: 04.07.14
Востаннє: 13.12.17
Повідомлень: 10

2014-07-07 16:21  
Акторів скопіював з перевіриного релізу https://toloka.to/t9943 так що претензії не до мене. Якщо там не правильно змініть і я зміню у себе.
А за образу вам потрібно ще одне попередження дати (шкода що я не модератор)

NeetScrool 
Відео Гуртом - фільмокрай
Відео Гуртом - фільмокрай


З нами з: 10.01.13
Востаннє: 14.12.17
Повідомлень: 2720

2014-07-09 07:06  
Krysztal
А якщо всі стрибатимуть з моста ви теж стрибнете?

Krysztal 
Новенький


З нами з: 04.07.14
Востаннє: 13.12.17
Повідомлень: 10

2014-07-09 10:28  
NeetScrool написано:
А якщо всі стрибатимуть з моста ви теж стрибнете?

ні, я поможу стрибнути, а сам скажу немає часу

ratbol 
Модератор HD


З нами з: 03.02.09
Востаннє: 11.12.17
Повідомлень: 1076

2014-07-09 10:39  
Досить.
-AnonyM- 
Новенький


З нами з: 09.02.14
Востаннє: 02.01.15
Повідомлень: 2

2014-12-19 22:08  
Цитата:
ref=3, bframes=3

дуже поганий рип

paulsmile 
Новенький


З нами з: 16.03.15
Востаннє: 13.12.17
Повідомлень: 2

2016-08-11 16:16  
Станьте будь ласка на роздачу)
vasilisk112 
Новенький


З нами з: 10.02.12
Востаннє: 09.12.17
Повідомлень: 1

2016-08-15 22:03  
Дайте роздачу, пліз...
sahof1986 
Частий відвідувач


З нами з: 13.06.11
Востаннє: 04.12.17
Повідомлень: 29

2017-07-09 21:17  
Krysztal
1+1 це найгірша озвучка планети земля!!!!
це найкрівіший і тупариліший переклад!!!

боже ти мій! та вони слова які діти в 3 класі вчать не правільно перекладають!
а коли чуєш цих так званих акторів озвучки то хочеться накласти спочатку на них (щоб не мучились!) а потім на себе руки!

так без душно без дарно як ті уроди роблять озвучку світ ще не бачив!
коли чую в якомусь фільмі їх озвучення зразу "офідерзейн" вирубую його на хер щоб здоровя своє зберігти!
з афільм дякую вам і особливо за ОЗВУЧЕННЯ К1!!!

Ваш часовий пояс: GMT + 2 Години

Нова тема   Відповісти