Ріо 2 / Rio 2 (2014) 720p-mini (60fps)

Нові коментарі

Нова тема   Відповісти
Останній раз роздавалося DIOKCUH (2017-08-20)
Автор Повідомлення
Drool 
VIP


З нами з: 17.04.10
Востаннє: 20.08.17
Повідомлень: 1373

2014-07-04 23:57  
Ріо 2 / Rio 2 (2014) 720p-mini (60fps)

Жанр: анімація, пригодницький, комедія, сімейний
Країна: США



Кінокомпанія: Twentieth Century Fox Animation, Blue Sky Studios
Режисер: Карлос Салдана
Актори: Енн Гетевей, Джесі Айзенберґ, Леслі Ман, Джеймі Фокс, Родріґо Санторо, Джемейн Клемент, Джон Леґуізамо та інші

Сюжет:
Блю, Джевел і їх троє дітей живуть щасливим життям в чарівному місті Ріо-де-Жанейро. Коли Джевел вирішує, що їх дітям потрібно навчитися жити як справжнім птахам, вона наполягає на авантюрній поїздці в нетрі річки Амазонки. Там, намагаючись вписатися в нове оточення, Блю починає турбуватися, що може втратити Джевел і дітей, що йдуть на поклик дикої природи...


Тривалість: 01:41:11
Якість: 720p-mini
Відео:
кодек:
розмір кадру: 1280x536
бітрейт: 4268 кб/с
частота кадрів: 59.940 кадрів/с

Аудіо:
мова: українська
переклад: професійний дубльований
кодек: 5.1
бітрейт: 448 кб/с

Джерело озвучення:
Info
General
Unique ID : 21203949693502115452739427905979953283 (0xFF3BB6F310EA9CCC18CD050D5623083)
Complete name : /mnt/router/Torrents/Rio.2.2014.Ukr.Dub.BDRip720p-mini.60fps.
Format :
Format version : Version 4 / Version 2
File size : 3.40 GiB
Duration : 1h 41mn
Overall bit rate : 4 812 Kbps
Movie name : Ріо 2 / Rio 2 (2014) 720p-mini (60fps) [NNNB, envy]
Encoded date : UTC 2010-02-22 21:41:31
Writing application : mkvmerge v6.1.0 ('Old Devil') built on Apr 14 2013 12:26:22
Writing library : libebml v1.3.0 + libmatroska v1.4.0

Video
ID : 1
Format : AVC
Format/Info : Advanced Video Codec
Format profile : [email protected]
Format settings, CABAC : Yes
Format settings, ReFrames : 9 frames
Codec ID : V_MPEG4/ISO/AVC
Duration : 1h 41mn
Bit rate : 4 268 Kbps
Width : 1 280 pixels
Height : 536 pixels
Display aspect ratio : 2.40:1
Frame rate : 59.940 fps
Color space : YUV
Chroma subsampling : 4:2:0
Bit depth : 8 bits
Scan type : Progressive
Bits/(Pixel*Frame) : 0.104
Stream size : 3.02 GiB (89%)
Title : Ріо 2 / Rio 2 (2014) 720p-mini (60fps) [NNNB, envy]
Writing library : core 130 r2273 b3065e6
Encoding settings : cabac=1 / ref=9 / deblock=1:-1:-1 / analyse=0x3:0x133 / me=umh / subme=10 / psy=1 / psy_rd=1.00:0.10 / mixed_ref=1 / me_range=32 / chroma_me=1 / trellis=2 / 8x8dct=1 / cqm=0 / deadzone=21,11 / fast_pskip=0 / chroma_qp_offset=-3 / threads=12 / lookahead_threads=1 / sliced_threads=0 / nr=0 / decimate=1 / interlaced=0 / bluray_compat=0 / constrained_intra=0 / bframes=6 / b_pyramid=2 / b_adapt=2 / b_bias=0 / direct=1 / weightb=1 / open_gop=0 / weightp=2 / keyint=250 / keyint_min=25 / scenecut=40 / intra_refresh=0 / rc=crf / mbtree=0 / crf=19.0 / qcomp=0.60 / qpmin=0 / qpmax=69 / qpstep=4 / ip_ratio=1.40 / pb_ratio=1.30 / aq=2:1.00
Default : Yes
Forced : No

Audio
ID : 2
Format : AC-3
Format/Info : Audio Coding 3
Mode extension : CM (complete main)
Codec ID : A_AC3
Duration : 1h 41mn
Bit rate mode : Constant
Bit rate : 448 Kbps
Channel(s) : 6 channels
Channel positions : Front: L C R, Side: L R, LFE
Sampling rate : 48.0 KHz
Bit depth : 16 bits
Compression mode : Lossy
Stream size : 324 MiB (9%)
Title : Рідна мова [, 48000 Hz, 5.1, s16, 448 kb/s]
Language : Ukrainian
Default : Yes
Forced : No
Скріншоти




Джерело:
Особиста оцінка: 10 - без зайвих вагань рекомендую всім!


 Трекер:    Зареєстрований   

Завантажити / скачати мультфільм українською



відео для новачків



 Зареєстрований:   2014-07-05 12:08
 Розмір:   3.4 GB 
 Оцінка мультфільму:   9.7/10 (Голосів: 19)
   
Інші релізи
   Ріо 2 / Rio 2 (2014) 1080p 3D [Half OverUnder] Ukr/Eng | Sub Ukr/Eng -VipeR-  3 / 0   7.18 GB   2016-02-07 13:30 
   Ріо 2 / Rio 2 (2014) Blu-ray CEE Multi | Sub Multi smak2001  0 / 1   43.02 GB   2014-07-13 16:58 
   Ріо 2 / Rio 2 (2014) 1080p Ukr/Eng | Sub Ukr/Eng 11FrYkT  7 / 0   8.24 GB   2014-07-04 10:43 
   Ріо 2 / Rio 2 (2014) AVC patriot2305  21 / 0   2.08 GB   2014-07-04 09:52 
   Ріо 2 / Rio 2 (2014) 720p Ukr/Eng | Sub Ukr/Eng 11FrYkT  6 / 0   3.93 GB   2014-07-04 09:35 
bot 
робот


З нами з: 30.09.07
Востаннє: 26.05.05
Повідомлень: 17405

2014-07-04 23:58  
Тему перенесено з Мультфільми в HD до форуму Анонси релізів


Drool

bot 
робот


З нами з: 30.09.07
Востаннє: 26.05.05
Повідомлень: 17405

2014-07-05 12:08  
Тему перенесено з Анонси релізів до форуму Мультфільми в HD


Drool

omm 
Відео Гуртом - фільмокрай
Відео Гуртом - фільмокрай


З нами з: 12.06.12
Востаннє: 21.08.17
Повідомлень: 2198

2014-07-06 14:12  
Оновіть скріншоти.

Чи треба якийсь спеціальний плеєр, щоб дивитись ці 60кадрів ? Чи можна звичайним чином запускати в кмплеєрі ? І якась різниця між 23,976 і 59,940 взагалі відчутна під час перегляду?

NeetScrool 
Відео Гуртом - фільмокрай
Відео Гуртом - фільмокрай


З нами з: 10.01.13
Востаннє: 21.08.17
Повідомлень: 2613

2014-07-06 16:57  
omm
Не треба.
Відчутна.

Drool 
VIP


З нами з: 17.04.10
Востаннє: 20.08.17
Повідомлень: 1373

2014-07-06 18:13  
omm написано:
1. Оновіть скріншоти.
2. І якась різниця між 23,976 і 59,940 взагалі відчутна під час перегляду?

1. Навіщо? Що з ними не так?
2. Тут хитра штука - людське око бачить зміну кадру від ~24-25 кадрів на секунду та нижче, але мозок фіксує зміну кадрів аж до ~48-50 кадрів на секунду. Подібні відео (відео підвищеної плавності) дурить не тільки око, яке не може сприйняти зміну кадру, але й мозок. Тому картинка здається живою, дехто каже, що навіть тривимірна.

Ваш часовий пояс: GMT + 2 Години

Нова тема   Відповісти