Послідовники (Сезон 1) / The Following (Season 1) (2013) 720p Ukr/Eng | sub Eng

Нові коментарі

Нова тема   Відповісти
Автор Повідомлення
Anonymous 







2014-06-29 15:16  
Послідовники (Сезон 1) / The Following (Season 1) (2013) 720p Ukr/Eng | sub Eng

Послідовники (Сезон 1) / The Following (Season 1) (2013) 720p Ukr/Eng | sub Eng


Жанр: трилер, драма, кримінал
Країна: США


Режисер: Маркос Сіґа
Актори/ролі озвучують: Кевін Бейкон, Джеймс Пьюрфой, Шон Ешмор, Кайл Кетлетт, Наталі Зіа, Енні Перрісс, Ніко Торторелла, Спреґ Ґрейден та інші...

Сюжет:
Агент ФБР Раян Гарді займався справою серійного убивці Джо Керролла, якого він схопив дев'ять років тому. Під час перебування у в'язниці, Керролл, використовуючи Інтернет, вербує армію однодумців-убивць для виконання своїх завдань, і тільки Раяну під силу зупинити його.


Тривалість: 1 серія: ~ 00:45:00 (цілком серій: 15)
Перелік серій
01. Pilot
02. Chapter Two
03. The Poet's Fire
04. Mad Love
05. The Siege
06. The Fall
07. Let Me Go
08. Welcome Hom
09. Love Hurts
10. Guilt
11. Whips & Regret
12. The Curse
13. Havenport
14. The End Is Near
15. The Final Chapter
Якість: [Hurtom]
Відео:
кодек:
розмір кадру: 1280 х 720
бітрейт: ~5500 кб/с

Аудіо # 1:
мова: українська
переклад: багатоголосий закадровий
кодек: 2.0
бітрейт: 192 кб/с

Аудіо # 2:
мова: англійська
переклад: оригінал
кодек: 5.1
бітрейт: 640 кб/с

Субтитри:
мова: англійська
тип: програмні (м'які)
формат: *.srt
Info
Complete name : D:\The Following (2013) [Ukr.Eng] 720p [Hurtom]\Following.S01E01 [Ukr] 720p[Hurtom].
Format :
Format version : Version 4 / Version 2
File size : 1.97 GiB
Duration : 45mn 35s
Overall bit rate : 6 176 Kbps
Encoded date : UTC 2014-06-29 15:36:16
Writing application : v6.9.1 ('Blue Panther') 64bit built on Apr 18 2014 18:23:38
Writing library : libebml v1.3.0 + v1.4.1

Video
ID : 1
Format : AVC
Format/Info : Advanced Video Codec
Format profile : [email protected]
Format settings, CABAC : Yes
Format settings, ReFrames : 5 frames
Codec ID : V_MPEG4/ISO/AVC
Duration : 45mn 35s
Bit rate : 5 343 Kbps
Width : 1 280 pixels
Height : 720 pixels
Display aspect ratio : 16:9
Frame rate mode : Constant
Frame rate : 23.976 fps
Color space : YUV
Chroma subsampling : 4:2:0
Bit depth : 8 bits
Scan type : Progressive
Bits/(Pixel*Frame) : 0.242
Stream size : 1.66 GiB (85%)
Writing library : core 138 r2358 9e941d1
Encoding settings : cabac=1 / ref=5 / deblock=1:-2:-2 / analyse=0x3:0x113 / me=umh / subme=8 / psy=1 / psy_rd=1.00:0.00 / mixed_ref=1 / me_range=16 / chroma_me=1 / trellis=1 / 8x8dct=1 / cqm=0 / deadzone=21,11 / fast_pskip=1 / chroma_qp_offset=-2 / threads=18 / lookahead_threads=3 / sliced_threads=0 / nr=0 / decimate=1 / interlaced=0 / bluray_compat=0 / constrained_intra=0 / bframes=3 / b_pyramid=2 / b_adapt=2 / b_bias=0 / direct=3 / weightb=1 / open_gop=0 / weightp=2 / keyint=240 / keyint_min=24 / scenecut=40 / intra_refresh=0 / rc_lookahead=50 / rc=2pass / mbtree=1 / bitrate=5343 / ratetol=1.0 / qcomp=0.60 / qpmin=0 / qpmax=69 / qpstep=4 / cplxblur=20.0 / qblur=0.5 / ip_ratio=1.40 / aq=1:1.00
Language : English
Default : Yes
Forced : No

Audio #1
ID : 2
Format : AC-3
Format/Info : Audio Coding 3
Mode extension : CM (complete main)
Format settings, Endianness : Big
Codec ID : A_AC3
Duration : 45mn 35s
Bit rate mode : Constant
Bit rate : 192 Kbps
Channel(s) : 2 channels
Channel positions : Front: L R
Sampling rate : 48.0 KHz
Bit depth : 16 bits
Compression mode : Lossy
Stream size : 62.6 MiB (3%)
Title : TTP-ICTV
Language : Ukrainian
Default : Yes
Forced : Yes

Audio #2
ID : 3
Format : AC-3
Format/Info : Audio Coding 3
Mode extension : CM (complete main)
Format settings, Endianness : Big
Codec ID : A_AC3
Duration : 45mn 35s
Bit rate mode : Constant
Bit rate : 640 Kbps
Channel(s) : 6 channels
Channel positions : Front: L C R, Side: L R, LFE
Sampling rate : 48.0 KHz
Bit depth : 16 bits
Compression mode : Lossy
Stream size : 209 MiB (10%)
Language : English
Default : No
Forced : No

Text #1
ID : 4
Format : UTF-8
Codec ID : S_TEXT/UTF8
Codec ID/Info : UTF-8 Plain Text
Title : SDH
Language : English
Default : No
Forced : No

Text #2
ID : 5
Format : UTF-8
Codec ID : S_TEXT/UTF8
Codec ID/Info : UTF-8 Plain Text
Language : English
Default : No
Forced : No

Menu
00:00:00.000 : en:00:00:00.000
00:01:42.978 : en:00:01:42.978
00:13:24.721 : en:00:13:24.721
00:19:00.973 : en:00:19:00.973
00:30:04.177 : en:00:30:04.177
00:38:20.673 : en:00:38:20.673
00:44:56.611 : en:00:44:56.611


Джерело:


Бронзовий реліз (на рейтинг впливає 75% завантаженого)
 Трекер:    Зареєстрований   

Завантажити / скачати серіал українською



відео для новачків



 Зареєстрований:   2014-07-16 19:36
 Розмір:   29.65 GB 
 Оцінка серіалу:   9.5/10 (Голосів: 8)
   
bot 
робот


З нами з: 30.09.07
Востаннє: 26.05.05
Повідомлень: 21765

2014-07-16 19:36  
Тему перенесено з Анонси релізів до форуму Серіали в HD


Sando7

77NewMan77 
Свій


З нами з: 25.08.10
Востаннє: 17.08.19
Повідомлень: 73

2014-07-16 21:31  
Нажаль з кожною серією становиться все гірше і гірше.
zaika 
VIP


З нами з: 01.07.12
Востаннє: 17.08.19
Повідомлень: 1205

2014-08-31 11:29  
Параноїдальний фільм. Суцільні маніяки. Маніяки в школі, університеті, лікарні, поліції. Маніяки спецпризначенці, ФБРівці. Маніяки сценаристи, режисери, актори. Сказитись можна.
Коли подивитись уважно - Раян Гард теж вилитий маніяк, хоча його ніс підказує, що він, або хтось з його предків походить десь з валдайської височини, або Комі-Пермятського автономного округу. Джо Керролл - такий собі сучасний Вольф Мессінг - один раз подивився і тисячі послідовників ідуть щільними рядами і ріжуть всіх. Жах. Є у фільмі один позитивний момент. Виконавицю на роль Емми підібрано ідеально. Варто тільки подивитись на тонкогубу, хижу посмішку - думка одна - вірю.
Про озвучку можна сказати одне - досить посередня. Якби вони хоч не говорили Хард - а Гард, або не Хевенпорт а Гевенпорт, тоді можна було б поставити тверду четвірку. А загалом фільм на 4/10.

11994455 
VIP


З нами з: 07.04.14
Востаннє: 17.08.19
Повідомлень: 353

2016-06-15 23:04  
Раян Гард теж вилитий маніяк = Ха ! Йогож Бейкон грає... Та й ти не бачив 3 сезону...
Ваш часовий пояс: GMT + 2 Години

Нова тема   Відповісти