Похмурий самурай / The Twilight Samurai / Tasogare Seibei (2002) 720p 2xUkr/Jap | Sub Ukr/Eng

Нові коментарі

Нова тема   Відповісти
Автор Повідомлення
Anonymous 







2014-06-29 12:35  
Похмурий самурай / The Twilight Samurai / Tasogare Seibei (2002) 720p 2xUkr/Jap | Sub Ukr/Eng

Похмурий самурай / The Twilight Samurai / Tasogare Seibei (2002) 720p 2xUkr/Jap | Sub Ukr/Eng
Альтернативні постери

Похмурий самурай / The Twilight Samurai / Tasogare Seibei (2002) 720p 2xUkr/Jap | Sub Ukr/Eng







Жанр: драма, історичний, бойовик, мелодрама
Країна: Японія



Кінокомпанія: Eisei Gekijo Company, Hakuhodo, Nippon Shuppan Hanbai (Nippan) K.K.
Режисер: Йодзі Ямада / Yôji Yamada
Актори: Хіроюкі Санада / Hiroyuki Sanada, Ріе Міядзава / Rie Miyazawa, Нендзі Кобаясі / Nenji Kobayashi, Рен Осуґі / Ren Osugi, Міцуру Фукікоші / Mitsuru Fukikoshi, Канако Фукаура / Kanako Fukaura, Хіроші Канбе / Hiroshi Kanbe, Мікі Іто / Miki Itô, Еріна Хашіґучі / Erina Hashiguchi, Рейко Кусамура / Reiko Kusamura

Сюжет:
Історія Сейбея - скромного самурая низького рангу і його сім'ї, що жили в епоху смути. Сейбей переміг у двобої суперника дерев'яним мечем і як тільки про це стало відомо, його проти його ж волі вплутали у конфлікт всередині самурайського клану. Він отримує наказ від сюзерена вбити такого ж як і він сам, самурая низького рангу - васала...


Вікова категорія: 12+

Тривалість: 02:09:02
Якість: 720p [ріп від EbP, crf=16.5]
Відео:
кодек:
розмір кадру: 1280 x 692
бітрейт: 8898 кбіт/с

Аудіо # 1:
мова: українська
озвучення: професійне багатоголосе закадрове | "Цікава Ідея"
кодек: 5.1
бітрейт: 448 кб/с
Інформація про озвучення:
Ролі озвучили: Юля Малахова, Ольга Мотрич, Євген Малуха, Роман Чупіс, Олексій Сафін, Матвій Ніколаєв та Влад Ковалевський.
Аудіо # 2:
мова: українська
озвучення: двоголосе закадрове
кодек: 2.0
бітрейт: 192 кб/с
примітка: озвучено поверх російського закадрового озвучення, на проміжку 01:03:46-01:04:38 нема українського озвучення, так транслював канал

Аудіо # 3:
мова: японська
переклад: оригінал
кодек: 5.1
бітрейт: 640 кб/с

Субтитри # 1:
мова: українська | команда субтитрування проекту "Відео Гуртом"
тип: програмні (м'які)
формат: *.srt

Субтитри # 2:
мова: англійська
тип: програмні (м'які)
формат: *.srt

Збережено оригінальні розділи, як на Blu-ray.
Info
Код:
General
Unique ID                   : 212791497372596363440382849711263072845 (0xA01626D3D9D43D2CBE04EECB46F2424D)
Complete name               : Tasogare Seibei (The Twilight Samurai) (2002) [2xUkr,Jap sub.Ukr,Eng] 720p [Hurtom].
Format                      :
Format version              : Version 4
File size                   : 8.60 GiB
Duration                    : 2 h 9 min
Overall bit rate            : 9 541 kb/s
Movie name                  : Похмурий самурай / Tasogare Seibei / The Twilight Samurai (2002) 720p [Hurtom]
Encoded date                : UTC 2020-02-12 16:53:55
Writing application         : v43.0.0 ('The Quartermaster') 64-bit
Writing library             : libebml v1.3.10 + v1.5.2
Cover                       : Yes
Attachments                 : cover.jpg

Video
ID                          : 1
Format                      : AVC
Format/Info                 : Advanced Video Codec
Format profile              : [email protected]
Format settings             : CABAC / 9 Ref Frames
Format settings, CABAC      : Yes
Format settings, Reference  : 9 frames
Codec ID                    : V_MPEG4/ISO/AVC
Duration                    : 2 h 9 min
Bit rate                    : 8 898 kb/s
Width                       : 1 280 pixels
Height                      : 692 pixels
Display aspect ratio        : 1.85:1
Frame rate mode             : Constant
Frame rate                  : 23.976 (24000/1001) FPS
Color space                 : YUV
Chroma subsampling          : 4:2:0
Bit depth                   : 8 bits
Scan type                   : Progressive
Bits/(Pixel*Frame)          : 0.419
Stream size                 : 8.02 GiB (93%)
Title                       : Похмурий самурай / Tasogare Seibei / The Twilight Samurai (2002) 720p [EbP]
Writing library             : core 122 r2184 5c85e0a
Encoding settings           : cabac=1 / ref=9 / deblock=1:-3:-3 / analyse=0x3:0x113 / me=tesa / subme=11 / psy=1 / psy_rd=1.10:0.00 / mixed_ref=1 / me_range=16 / chroma_me=1 / trellis=2 / 8x8dct=1 / cqm=0 / deadzone=21,11 / fast_pskip=0 / chroma_qp_offset=-2 / threads=12 / sliced_threads=0 / nr=0 / decimate=0 / interlaced=0 / bluray_compat=0 / constrained_intra=0 / bframes=7 / b_pyramid=2 / b_adapt=2 / b_bias=0 / direct=3 / weightb=1 / open_gop=0 / weightp=2 / keyint=250 / keyint_min=23 / scenecut=40 / intra_refresh=0 / rc=crf / mbtree=0 / crf=16.5 / qcomp=0.70 / qpmin=0 / qpmax=69 / qpstep=4 / ip_ratio=1.40 / pb_ratio=1.30 / aq=1:0.75
Language                    : English
Default                     : Yes
Forced                      : No

Audio #1
ID                          : 2
Format                      : AC-3
Format/Info                 : Audio Coding 3
Commercial name             : Dolby Digital
Codec ID                    : A_AC3
Duration                    : 2 h 9 min
Bit rate mode               : Constant
Bit rate                    : 448 kb/s
Channel(s)                  : 6 channels
Channel layout              : L R C LFE Ls Rs
Sampling rate               : 48.0 kHz
Frame rate                  : 31.250 FPS (1536 SPF)
Compression mode            : Lossy
Stream size                 : 414 MiB (5%)
Title                       : MVO [Cikava ideya], 5.1 448 Kbps
Language                    : Ukrainian
Service kind                : Complete Main
Default                     : Yes
Forced                      : No

Audio #2
ID                          : 3
Format                      : AC-3
Format/Info                 : Audio Coding 3
Commercial name             : Dolby Digital
Codec ID                    : A_AC3
Duration                    : 2 h 9 min
Bit rate mode               : Constant
Bit rate                    : 192 kb/s
Channel(s)                  : 2 channels
Channel layout              : L R
Sampling rate               : 48.0 kHz
Frame rate                  : 31.250 FPS (1536 SPF)
Compression mode            : Lossy
Delay relative to video     : 7 ms
Stream size                 : 177 MiB (2%)
Title                       : DVO [Kino] 2.0 192 Kbps [Hurtom-karvai0]
Language                    : Ukrainian
Service kind                : Complete Main
Default                     : No
Forced                      : No

Text #1
ID                          : 4
Format                      : UTF-8
Codec ID                    : S_TEXT/UTF8
Codec ID/Info               : UTF-8 Plain Text
Duration                    : 2 h 5 min
Bit rate                    : 66 b/s
Count of elements           : 1154
Stream size                 : 61.2 KiB (0%)
Title                       : Ukr full [Hurtom]
Language                    : Ukrainian
Default                     : No
Forced                      : No

Text #2
ID                          : 5
Format                      : UTF-8
Codec ID                    : S_TEXT/UTF8
Codec ID/Info               : UTF-8 Plain Text
Duration                    : 2 h 5 min
Bit rate                    : 37 b/s
Count of elements           : 1155
Stream size                 : 34.3 KiB (0%)
Title                       : Eng full
Language                    : English
Default                     : No
Forced                      : No

Menu
00:00:00.000                : en:00:00:00.000
00:03:18.323                : en:00:03:18.323
00:14:56.062                : en:00:14:56.062
00:23:31.744                : en:00:23:31.744
00:29:04.326                : en:00:29:04.326
00:39:57.395                : en:00:39:57.395
00:46:55.646                : en:00:46:55.646
00:51:07.189                : en:00:51:07.189
00:56:31.722                : en:00:56:31.722
01:03:43.653                : en:01:03:43.653
01:10:52.915                : en:01:10:52.915
01:23:18.202                : en:01:23:18.202
01:27:01.550                : en:01:27:01.550
01:41:40.094                : en:01:41:40.094
01:52:55.686                : en:01:52:55.686
02:00:29.556                : en:02:00:29.556
02:03:12.594                : en:02:03:12.594




Джерела та подяки: & &
ріп відео - EbP (HDbits); українська доріжка # 2 - karvai0 - зведення, Tanat13 - запис з ТБ; українські субтитри - команда субтитрування (всі - Гуртом).

12.02.2020 реліз оновлено: додано озвучення від студії "Цікава ідея"



ЗАЛИШАЙТЕСЬ ЯКОМОГА ДОВШЕ НА РОЗДАЧІ!

СКАЧАВ САМ - ДАЙ СКАЧАТИ ІНШИМ


Авторський реліз (завантажувати можна без реєстрації)
 Трекер:    Зареєстрований   

Завантажити / скачати фільм українською



відео для новачків



 Зареєстрований:   2020-02-12 19:57
 Розмір:   8.6 GB 
 Оцінка фільму:   6.9/10 (Голосів: 31)
 ЗАЛИШАЙТЕСЬ ЯКОМОГА ДОВШЕ НА РОЗДАЧІ! ЗАВАНТАЖИВ САМ - ДАЙ ЗАВАНТАЖИТИ ІНШИМ!
   
deemonmeister 
Частий відвідувач


З нами з: 24.02.15
Востаннє: 28.09.20
Повідомлень: 45

2019-03-01 15:04  
Найкращій фільм який я дивився за останні декілька років. Дуже дякую!
trasylo 
Свій


З нами з: 24.12.16
Востаннє: 29.09.20
Повідомлень: 77

2019-03-03 20:21  
Так, фільм чудовий. Раджу всім
Anonymous 







2020-02-12 19:58  
реліз оновлено - додано озвучення від Цікава ідея
olimpian1 
VIP


З нами з: 19.10.13
Востаннє: 24.09.20
Повідомлень: 290

2020-02-13 11:17  
хороший фільм
Ваш часовий пояс: GMT + 2 Години

Нова тема   Відповісти