Низьке зимове сонце (Сезон 1) / Low Winter Sun (Season 1) (2013) 1080p Ukr/Eng

Нові коментарі

Нова тема   Відповісти
Останній раз роздавалося brean (2020-12-05)
Автор Повідомлення
Dark Invader 
Модератор відео


З нами з: 06.01.11
Востаннє: 05.12.20
Повідомлень: 3010

2014-06-28 12:56  
Низьке зимове сонце (Сезон 1) / Low Winter Sun (Season 1) (2013) 1080p Ukr/Eng

Низьке зимове сонце (Сезон 1) / Low Winter Sun (Season 1) (2013) 1080p Ukr/Eng


Жанр: кримінальна драма
Країна: США


Кінокомпанія / телеканал: AMC Studios, Endemol, Man, Woman & Child Productions, Tiger Aspect Productions / AMC
Режисери: Ернест Р. Дікерсон, Стефан Шварц та інші
Актори: Ленні Джеймс, Марк Стронг, Хізер Фейрбенкс, Пенні Марі Хоукінс, Джозеф Катрейн, Біллі Лаш, Джеймс Ренсон та інші

Сюжет:
Історія вбивства, обману, помсти й корупції у світі, де грань між поліцейськими й злочинцями розмита. Серіал починається з убивства поліцейського його другом, детективом з Детройта. Це вбивство спричинить події, які назавжди змінять життя детектива…


Тривалість: 1 серія: ~ 43 хв. (цілком серій: 10)
Перелік серій
01. Pilot
02. The Goat Rodeo
03. No Rounds
04. Catacombs
05. Cake on the Way
06. The Way Things Are
07. There Was a Girl
08. Revelations
09. Ann Arbor
10. Surrender
Якість:
Відео:
кодек:
розмір кадру: 1920 х 1080
бітрейт: ~ 8 055 кб/с

Аудіо # 1:
мова: українська
переклад: професійний дубльований
кодек: 2.0
бітрейт: 192 кб/с

Аудіо # 2:
мова: англійська
переклад: оригінал
кодек:
бітрейт: 768 кб/с

Переклад і озвучення виконано:
студією "Так Треба Продакшн" на замовлення телеканалу

Info
General
Unique ID : 200592477982740909897960658496270725017 (0x96E8B4BC311D57CDB07D86859C316F99)
Complete name : D:\Нова папка\Low Winter Sun - Season 1 (2013) 1080p [Ukr, Eng]\Low Winter Sun - S01E03 (2013) 1080p [Ukr, Eng].
Format :
Format version : Version 4 / Version 2
File size : 2.70 GiB
Duration : 42mn 52s
Overall bit rate : 9 022 Kbps
Encoded date : UTC 2014-07-16 09:53:59
Writing application : v7.0.0 ('Where We Going') 32bit built on Jun 9 2014 15:08:34
Writing library : libebml v1.3.0 + v1.4.1
DURATION : 00:42:52.512000000
NUMBER_OF_FRAMES : 80391
NUMBER_OF_BYTES : 61740288
_STATISTICS_WRITING_APP : v7.0.0 ('Where We Going') 32bit built on Jun 9 2014 15:08:34
_STATISTICS_WRITING_DATE_UTC : 2014-07-16 09:53:59
_STATISTICS_TAGS : BPS DURATION NUMBER_OF_FRAMES NUMBER_OF_BYTES

Video
ID : 1
Format : AVC
Format/Info : Advanced Video Codec
Format profile : [email protected]
Format settings, CABAC : Yes
Format settings, ReFrames : 4 frames
Codec ID : V_MPEG4/ISO/AVC
Duration : 42mn 52s
Bit rate : 8 058 Kbps
Width : 1 920 pixels
Height : 1 080 pixels
Display aspect ratio : 16:9
Frame rate mode : Constant
Frame rate : 23.976 fps
Color space : YUV
Chroma subsampling : 4:2:0
Bit depth : 8 bits
Scan type : Progressive
Bits/(Pixel*Frame) : 0.162
Stream size : 2.36 GiB (87%)
Title :
Writing library : core 133 r2334 a3ac64b
Encoding settings : cabac=1 / ref=4 / deblock=1:0:0 / analyse=0x3:0x133 / me=umh / subme=7 / psy=1 / psy_rd=1.00:0.00 / mixed_ref=1 / me_range=16 / chroma_me=1 / trellis=1 / 8x8dct=1 / cqm=0 / deadzone=21,11 / fast_pskip=0 / chroma_qp_offset=-2 / threads=36 / lookahead_threads=6 / sliced_threads=0 / nr=0 / decimate=1 / interlaced=0 / bluray_compat=0 / constrained_intra=0 / bframes=3 / b_pyramid=2 / b_adapt=1 / b_bias=0 / direct=1 / weightb=1 / open_gop=0 / weightp=2 / keyint=250 / keyint_min=23 / scenecut=40 / intra_refresh=0 / rc_lookahead=40 / rc=2pass / mbtree=1 / bitrate=8058 / ratetol=1.0 / qcomp=0.60 / qpmin=0 / qpmax=69 / qpstep=4 / cplxblur=20.0 / qblur=0.5 / ip_ratio=1.40 / aq=1:1.00
Language : English
Default : Yes
Forced : No
DURATION : 00:42:52.491000000
NUMBER_OF_FRAMES : 61678
NUMBER_OF_BYTES : 2591632990
_STATISTICS_WRITING_APP : v7.0.0 ('Where We Going') 32bit built on Jun 9 2014 15:08:34
_STATISTICS_WRITING_DATE_UTC : 2014-07-16 09:53:59
_STATISTICS_TAGS : BPS DURATION NUMBER_OF_FRAMES NUMBER_OF_BYTES

Audio #1
ID : 2
Format : AC-3
Format/Info : Audio Coding 3
Mode extension : CM (complete main)
Format settings, Endianness : Big
Codec ID : A_AC3
Duration : 42mn 52s
Bit rate mode : Constant
Bit rate : 192 Kbps
Channel(s) : 2 channels
Channel positions : Front: L R
Sampling rate : 48.0 KHz
Bit depth : 16 bits
Compression mode : Lossy
Stream size : 58.9 MiB (2%)
Title : Так Треба Продакшн
Language : Ukrainian
Default : Yes
Forced : No

Audio #2
ID : 3
Format :
Format/Info : Digital Theater Systems
Mode : 16
Format settings, Endianness : Big
Codec ID : A_DTS
Duration : 42mn 52s
Bit rate mode : Constant
Bit rate : 768 Kbps
Channel(s) : 6 channels
Channel positions : Front: L C R, Side: L R, LFE
Sampling rate : 48.0 KHz
Bit depth : 24 bits
Compression mode : Lossy
Stream size : 236 MiB (9%)
Title :
Language : English
Default : No
Forced : No

Menu
00:00:00.000 : en:00:00:00.000
00:06:03.780 : en:00:06:03.780
00:13:07.245 : en:00:13:07.245
00:19:44.350 : en:00:19:44.350
00:26:58.450 : en:00:26:58.450
Торрент-файл оновлено (27.07.2014)
Додано 4-10 серії.
Повний сезон!


Скріншоти:


Джерело:
Особиста оцінка: Не дивився

Цитата:
Подяки:
За запис Sando7, OlegCena.
За синхронізацію patriot2305.


Бронзовий реліз (на рейтинг впливає 75% завантаженого)
 Трекер:    Зареєстрований   

Завантажити / скачати серіал українською



відео для новачків



 Зареєстрований:   2014-07-27 17:44
 Розмір:   27.01 GB 
 Оцінка серіалу:   9.6/10 (Голосів: 10)
   
d1monster 
Свій


З нами з: 05.12.09
Востаннє: 04.12.20
Повідомлень: 98

2014-07-17 10:28  
Дякую. Можливо є інформація з якою періодичністю будуть додаватись серії?
Dark Invader 
Модератор відео


З нами з: 06.01.11
Востаннє: 05.12.20
Повідомлень: 3010

2014-07-21 14:38  
d1monster написано:
Можливо є інформація з якою періодичністю будуть додаватись серії?

Оновлю повним сезоном в кінці тижня.

Dark Invader 
Модератор відео


З нами з: 06.01.11
Востаннє: 05.12.20
Повідомлень: 3010

2014-07-27 17:45  
Торрент-файл оновлено (27.07.2014)
Додано 4-10 серії.
Повний сезон!

Estranded 
VIP


З нами з: 09.02.14
Востаннє: 05.12.20
Повідомлень: 1528

2014-08-09 08:13  
файний серіал?
bandera77 
VIP


З нами з: 14.03.09
Востаннє: 26.11.20
Повідомлень: 283

2016-04-09 19:34  
Якщо є можливість - станьте на роздачу. Хочу з нашим дубляжем!
natashelka 
VIP


З нами з: 23.05.10
Востаннє: 01.12.20
Повідомлень: 484

2016-05-10 23:18  
дуже КРУУУТИЙ серіал
scooper 
Новенький


З нами з: 07.03.16
Востаннє: 26.08.20
Повідомлень: 1

2017-06-28 22:48  
Cпасибо, спасибо, спасибо !!!
natashelka 
VIP


З нами з: 23.05.10
Востаннє: 01.12.20
Повідомлень: 484

2019-12-06 10:49  
реально крутий серіал, я не розумію, чому його не дивляться користувачі Гуртом. чи можливо, вони вважають, що корупції в поліції України немає? не здивуєтесь, думаю, Є. чи ви знаєте можливо, крутіші серіали про корупцію в поліції? то пишіть які, всім буде цікаво.
Ваш часовий пояс: GMT + 2 Години

Нова тема   Відповісти