Маґі: Лабіринт Магії / Magi: The Labyrinth of Magic (серії 01-25 з 25) (2012) 720p Ukr/Jap | sub Ukr

Нові коментарі

Нова тема   Відповісти
Автор Повідомлення
ihabi 
Поважний учасник


З нами з: 01.03.13
Востаннє: 07.08.17
Повідомлень: 247

2014-06-25 18:28  
Маґі: Лабіринт Магії / Magi: The Labyrinth of Magic (серії 01-25 з 25) (2012) 720p Ukr/Jap | sub Ukr

Маґі: Лабіринт Магії / Magi: The Labyrinth of Magic (серії 01-25 з 25) (2012) 720p Ukr/Jap | sub Ukr


Жанр: фентезі, комедія, пригоди
Країна: Японія



7.41 (1374 голосів)

Кінокомпанія: A-1 Pictures Inc.
Режисер: Масунарі Коджі
Ролі озвучують: Ішіхара Каорі, Кайджі Юкі, Томацу Харука, Сугіта Томоказу та ін.

Сюжет:
По всьому світі з'явилися невідомі "Вежі", які люди почали називати "Підземеллями". У цих вежах можна знайти купу скарбів і магічих предметів. Алібаба прагне пройти одне з них, щоб отримати скарби. Перш ніж наважитися піти у це небезпечне місце, з якого ще ніхто не повернувся, він тяжко працює, та одного прекрасного дня у своєму возі він знаходить хлопчика, що з насолодою смакував чужі кавуни. А хлопчик виявився незвичайним, бо мав Джина - справжнього, магічного. Об'єднавшись, кожен заради своєї мети, вони йдуть разом у Підземелля.


Тривалість: 1 серія: 24:31 (цілком серій: 25)
Перелік серій
1. Аладін і Алібаба
2. Підземелля
3. Маг Сотворення
4. Жителі рівнин
5. Хранитель Підземелля
6. Войовниче плем'я Фаналіс
7. Його ім'я - Сіндбад
8. Порушена обіцянка
9. Обов'язок принца
10. Його ім'я - Джудал
11. Нова гостя
12. Рішучість і відокремлення
13. Принц повстанець
14. Відповідь Алібаби
15. Відповідь Кассіма
16. Мудрість Соломона
17. Усмішка
18. Королівство Сіндрія
19. Ім'я лиходія - Сіндбад
20. Два Принци
21. Підземелля Заґана
22. Родина полум'я
23. Бойовий клич
24. Впадання в розпусту
25. Алібаба і Алладін
Якість:
Відео:
кодек:
розмір кадру: 1280 х 720
бітрейт: 2 109 кб/с

Аудіо #1:
мова: українська
переклад: багатоголосий закадровий
кодек: 2.0
бітрейт: 192 кб/с

Аудіо #2:
мова: японська
переклад: оригінал
кодек: 2.0
бітрейт: 640 кб/с

Субтитри #1:
мова: українська
тип: форсовані
формат: *.ass

Субтитри #2:
мова: українська
тип: програмні (м'які)
формат: *.ass
Info
Video
ID : 1
Format : AVC
Format/Info : Advanced Video Codec
Format profile : High 10@L3.1
Format settings, CABAC : Yes
Format settings, ReFrames : 4 frames
Codec ID : V_MPEG4/ISO/AVC
Duration : 24mn 36s
Bit rate : 2 109 Kbps
Width : 1 280 pixels
Height : 720 pixels
Display aspect ratio : 16:9
Frame rate mode : Constant
Frame rate : 23.976 fps
Color space : YUV
Chroma subsampling : 4:2:0
Bit depth : 10 bits
Scan type : Progressive
Bits/(Pixel*Frame) : 0.095
Stream size : 371 MiB (90%)
Writing library : core 130 r2273 b3065e6
Encoding settings : cabac=1 / ref=3 / deblock=1:0:0 / analyse=0x3:0x113 / me=hex / subme=7 / psy=1 / psy_rd=1.00:0.00 / mixed_ref=1 / me_range=16 / chroma_me=1 / trellis=1 / 8x8dct=1 / cqm=0 / deadzone=21,11 / fast_pskip=1 / chroma_qp_offset=-2 / threads=3 / lookahead_threads=1 / sliced_threads=0 / nr=0 / decimate=1 / interlaced=0 / bluray_compat=0 / constrained_intra=0 / bframes=3 / b_pyramid=2 / b_adapt=1 / b_bias=0 / direct=1 / weightb=1 / open_gop=0 / weightp=2 / keyint=240 / keyint_min=23 / scenecut=40 / intra_refresh=0 / rc_lookahead=40 / rc=crf / mbtree=1 / crf=16.0 / qcomp=0.60 / qpmin=0 / qpmax=81 / qpstep=4 / ip_ratio=1.40 / aq=1:1.00
Default : Yes
Forced : No

Audio
ID : 2
Format : AC-3
Format/Info : Audio Coding 3
Mode extension : CM (complete main)
Format settings, Endianness : Big
Codec ID : A_AC3
Duration : 24mn 36s
Bit rate mode : Constant
Bit rate : 192 Kbps
Channel(s) : 2 channels
Channel positions : Front: L R
Sampling rate : 48.0 KHz
Bit depth : 16 bits
Compression mode : Lossy
Stream size : 33.8 MiB (8%)
Title : MVS
Language : Ukrainian
Default : Yes
Forced : No

Text
ID : 3
Format : ASS
Codec ID : S_TEXT/ASS
Codec ID/Info : Advanced Sub Station Alpha
Compression mode : Lossless
Title : Bills Spirit
Language : Ukrainian
Default : Yes
Forced : No

Menu
00:00:00.000 : en:Chapter 01
00:02:13.008 : en:Chapter 02
00:03:43.014 : en:Chapter 03
00:17:14.450 : en:Chapter 04
00:22:42.027 : en:Chapter 05
00:24:12.993 : en:Chapter 06
Переклад та озвучення виконано:
Переклад: bills_spirit
Редакція: Urajimiru-sama
Текст читали: Sladkoeshka, ihabi, Konstantinych, Enelira, Korzhik, Lomaev
Робота зі звуком: ihabi
Таймінг: Kallaider, Sirko, Sladkoeshka, Enelira, ihabi
Постер: ihabi

Джерело: MelodicVoiceStudio

Скріншоти









Додані 23,24,25 серії.
Додані оригінальні доріжки та субтитри від bills_spirit.

Особиста оцінка: 8 - мені сподобалося


Авторський реліз (завантажувати можна без реєстрації)
 Трекер:    Зареєстрований   

Завантажити / скачати аніме українською



відео для новачків



 Зареєстрований:   2015-02-27 18:38
 Розмір:   12.14 GB 
 Оцінка аніме:   8.4/10 (Голосів: 11)
   
ihabi 
Поважний учасник


З нами з: 01.03.13
Востаннє: 07.08.17
Повідомлень: 247

2014-07-15 16:39  

Додана 5 серія

Konfucius 
Управління
Управління


З нами з: 30.09.07
Востаннє: 20.08.17
Повідомлень: 4941

2014-07-16 12:41  
Бракує оригінальної озвучки.
Rise 
Модератор розділу аніме


З нами з: 02.11.08
Востаннє: 24.04.17
Повідомлень: 555

2014-07-16 12:53  
Цитата:
Бракує оригінальної озвучки.

А хіба вона тут обов'язкова?
Цитата:
6. Оригінальна доріжка обов'язкова у всіх релізах HD, крім 720p-mini та багатосерійних.

Konfucius 
Управління
Управління


З нами з: 30.09.07
Востаннє: 20.08.17
Повідомлень: 4941

2014-07-17 11:06  
Rise написано:
А хіба вона тут обов'язкова?

Ти правий, необов'язкова. Моя помилка.

ihabi 
Поважний учасник


З нами з: 01.03.13
Востаннє: 07.08.17
Повідомлень: 247

2014-08-07 15:25  
Додана 6 серія 
ihabi 
Поважний учасник


З нами з: 01.03.13
Востаннє: 07.08.17
Повідомлень: 247

2014-11-04 23:59  

Додані 7-12 серії


Додано через 1 годину 44 хвилини 47 секунд:

UPD Виправлено зникнення звуку в 12-ій серії

ihabi 
Поважний учасник


З нами з: 01.03.13
Востаннє: 07.08.17
Повідомлень: 247

2014-12-12 00:38  

Додана 13 серія. Виправлений звук 10, 11 та 12 серії.

ihabi 
Поважний учасник


З нами з: 01.03.13
Востаннє: 07.08.17
Повідомлень: 247

2015-01-01 07:19  

Додані 14 та 15 серії.

ihabi 
Поважний учасник


З нами з: 01.03.13
Востаннє: 07.08.17
Повідомлень: 247

2015-01-15 02:41  

Додані 16-19 серії.

kohinsan 
Новенький


З нами з: 16.10.12
Востаннє: 29.04.17
Повідомлень: 19

2015-01-17 18:42  
від перемішки сезонів в голові кашка))
ihabi 
Поважний учасник


З нами з: 01.03.13
Востаннє: 07.08.17
Повідомлень: 247

2015-01-28 17:41  

Додані 20-22 серії

ihabi 
Поважний учасник


З нами з: 01.03.13
Востаннє: 07.08.17
Повідомлень: 247

2015-02-27 20:46  

Dark Hunter 
Свій


З нами з: 03.10.12
Востаннє: 14.08.17
Повідомлень: 94

2015-12-05 17:57  
Дуже дякую, чудове аніме. Передивлявся декілька разів.
xgorox 
Новенький


З нами з: 12.12.13
Востаннє: 20.08.17
Повідомлень: 1

2017-07-02 20:34  
Питання до перекладачів. Що це за російськомовна фраза на останніх секундах 13 серії? Не робіть так.
Ваш часовий пояс: GMT + 2 Години

Нова тема   Відповісти