Футурама: Гра Бендера / Futurama: Bender’s Game (2008) 720p Ukr/Eng

Нові коментарі

Нова тема   Відповісти
Автор Повідомлення
-_-B_E_N_D_E_R-_- 
Оцифрування книг Гуртом
Оцифрування книг Гуртом


З нами з: 09.01.14
Востаннє: 17.08.17
Повідомлень: 162

2014-06-19 09:53  
Футурама: Гра Бендера / Futurama: Bender’s Game (2008) 720p Ukr/Eng

Футурама: Гра Бендера / Futurama: Bender’s Game (2008) 720p Ukr/Eng


Жанр: анімація, історичний, пригодницький, фантастика, комедія
Країна: США



Кінокомпанія: 20th Century Fox
Режисер: Двейн Кері-Хілл
Актори: Біллі Вест, Кеті Сейґал, Джон ДіМаджіо, Філ Ламарр, Лорен Том, Моріс Ламарш, Тресс Макнілл

Сюжет:
Коли ціни на паливо злітають до небес, команда «Планет Експрес» вирушає у нову небезпечну подорож до єдиного на світі джерела темної матерії - палива для всіх космічних кораблів. Але глибоко під землею наші герої потрапляють в дуже незвичайне місце... середньовічну країну з драконами, магами і «обдовбаними» лицарями, які підозріло схожі на Бендера. Припаркуйте свій автомобіль, Осідлайте єдинорога й приготуйтеся до захоплюючого видовища...


Тривалість: 01:27:27
Якість:
Відео:
кодек:
розмір кадру: 1280 х 720
бітрейт: 3 211 кб/с

Аудіо # 1:
мова: українська
переклад: багатоголосий закадровий
кодек: 2.0
бітрейт: 192 кб/с

Аудіо # 2:
мова: англійська
переклад: оригінал
кодек: 2.0
бітрейт: 192 кб/с

Джерело озвучення:
Info

Код:

General
Unique ID                                : 194859967186642467853430532911362445216 (0x9298AA21B2F5CA13B08720ACCDF38FA0)
Complete name                            : C:\Users\Адміністратор\Downloads\Futurama. Quadrilogy (2007, 2008, 2009) 720p\Futurama Bender’s Game (2008) 720p Ukr.Eng.
Format                                   :
Format version                           : Version 4 / Version 2
File size                                : 2.18 GiB
Duration                                 : 1h 27mn
Overall bit rate mode                    : Variable
Overall bit rate                         : 3 574 Kbps
Movie name                               : Rip by herrower
Encoded date                             : UTC 2014-06-18 17:04:44
Writing application                      : mkvmerge v7.0.0 ('Where We Going') 32bit built on Jun  9 2014 15:08:34
Writing library                          : libebml v1.3.0 + libmatroska v1.4.1
DURATION                                 : 01:27:27.232000000
NUMBER_OF_FRAMES                         : 163976
NUMBER_OF_BYTES                          : 125933568
_STATISTICS_WRITING_APP                  : mkvmerge v7.0.0 ('Where We Going') 32bit built on Jun  9 2014 15:08:34
_STATISTICS_WRITING_DATE_UTC             : 2014-06-18 17:04:44
_STATISTICS_TAGS                         : BPS DURATION NUMBER_OF_FRAMES NUMBER_OF_BYTES

Video
ID                                       : 1
Format                                   : AVC
Format/Info                              : Advanced Video Codec
Format profile                           : [email protected]
Format settings, CABAC                   : Yes
Format settings, ReFrames                : 3 frames
Codec ID                                 : V_MPEG4/ISO/AVC
Duration                                 : 1h 27mn
Bit rate mode                            : Variable
Bit rate                                 : 3 211 Kbps
Maximum bit rate                         : 17.5 Mbps
Width                                    : 1 280 pixels
Height                                   : 720 pixels
Display aspect ratio                     : 16:9
Frame rate mode                          : Constant
Frame rate                               : 23.976 fps
Color space                              : YUV
Chroma subsampling                       : 4:2:0
Bit depth                                : 8 bits
Scan type                                : Progressive
Bits/(Pixel*Frame)                       : 0.145
Stream size                              : 1.91 GiB (87%)
Writing library                          : core 112 r1867 22bfd31
Encoding settings                        : cabac=1 / ref=1 / deblock=1:0:0 / analyse=0x3:0x3 / me=dia / subme=1 / psy=1 / psy_rd=0.00:0.00 / mixed_ref=0 / me_range=16 / chroma_me=1 / trellis=0 / 8x8dct=1 / cqm=0 / deadzone=21,11 / fast_pskip=1 / chroma_qp_offset=0 / threads=3 / sliced_threads=0 / nr=0 / decimate=1 / interlaced=0 / constrained_intra=0 / bframes=3 / b_pyramid=1 / b_adapt=1 / b_bias=0 / direct=1 / weightb=1 / open_gop=0 / weightp=1 / keyint=24 / keyint_min=1 / scenecut=40 / intra_refresh=0 / rc_lookahead=0 / rc=abr / mbtree=0 / bitrate=3211 / ratetol=1.0 / qcomp=0.60 / qpmin=0 / qpmax=51 / qpstep=4 / vbv_maxrate=17500 / vbv_bufsize=14500 / nal_hrd=vbr / ip_ratio=1.10 / pb_ratio=1.10 / aq=1:1.00
Default                                  : Yes
Forced                                   : No

Audio #1
ID                                       : 2
Format                                   : AC-3
Format/Info                              : Audio Coding 3
Mode extension                           : CM (complete main)
Format settings, Endianness              : Big
Codec ID                                 : A_AC3
Duration                                 : 1h 27mn
Bit rate mode                            : Constant
Bit rate                                 : 192 Kbps
Channel(s)                               : 2 channels
Channel positions                        : Front: L R
Sampling rate                            : 48.0 KHz
Bit depth                                : 16 bits
Compression mode                         : Lossy
Stream size                              : 120 MiB (5%)
Language                                 : Ukrainian
Default                                  : Yes
Forced                                   : Yes

Audio #2
ID                                       : 3
Format                                   : AC-3
Format/Info                              : Audio Coding 3
Mode extension                           : CM (complete main)
Format settings, Endianness              : Big
Codec ID                                 : A_AC3
Duration                                 : 1h 27mn
Bit rate mode                            : Constant
Bit rate                                 : 192 Kbps
Channel(s)                               : 2 channels
Channel positions                        : Front: L R
Sampling rate                            : 48.0 KHz
Bit depth                                : 16 bits
Compression mode                         : Lossy
Stream size                              : 120 MiB (5%)
Language                                 : English
Default                                  : No
Forced                                   : No
Скріншоти
Джерело: &
Особиста оцінка: 10 - без зайвих вагань рекомендую всім!


 Трекер:    Зареєстрований   

Завантажити / скачати мультфільм українською



відео для новачків



 Зареєстрований:   2014-06-19 09:53
 Розмір:   2.18 GB 
 Оцінка мультфільму:   9.6/10 (Голосів: 18)
   
boroznaya 
VIP


З нами з: 02.11.12
Востаннє: 16.08.17
Повідомлень: 2264

2017-06-05 19:50  
Наскільки люблю Сімпсонів, настільки ненавиджу Футураму. Пробувала переглядати, та знудилась і вимкнула. Повнометражні фільми також кал...
[email protected] Ман`як_ 
Новенький


З нами з: 02.06.17
Востаннє: 18.07.17
Повідомлень: 4

2017-06-11 16:29  
Паняночко, ви щоооооо..... Не кажіть такогооо
boroznaya 
VIP


З нами з: 02.11.12
Востаннє: 16.08.17
Повідомлень: 2264

2017-06-11 17:42  
[email protected] Ман`як_
Шановний! Я нікого не засуджую, адже про смаки не сперечаються. Просто мені більше до вподоби "Сімпсони".

Ваш часовий пояс: GMT + 2 Години

Нова тема   Відповісти