Шалений Мадагаскар / Madly Madagascar (2013) 720p Ukr/Eng | Sub Ukr/Eng

Нові коментарі

Нова тема   Відповісти
Автор Повідомлення
Anonymous 







2014-06-18 21:17  
Шалений Мадагаскар / Madly Madagascar (2013) 720p Ukr/Eng | Sub Ukr/Eng



Жанр: пригодницький, сімейний, комедія, дитячий, анімація
Країна: США



Режисер: Девід Сорен
Ролі озвучили (в оригіналі): Бен Стіллер, Кріс Рок, Джада Пінкетт Сміт, Саша Барон Коен

Сюжет:
Історія, розказана в цьому мультфільмі, сталася з улюбленими героями між другою і третьою частинами, якраз напередодні Дня Святого Валентина. Алекс дуже любить це свято і завжди ретельно до нього готується, адже він упевнений, що тільки любов може врятувати весь світ. Раніше він отримував тонни листівок на це свято від прихильниць, але в Африці не прийнято святкувати його, і він збирається разом зі своїми друзями організувати справжнє торжество з нагоди Дня Всіх Закоханих.


Тривалість: 00:21:11
Якість: 720p
Відео:
кодек:
розмір кадру: 1280 х 718
бітрейт: 4781 кбіт/с

Аудіо # 1:
мова: українська
переклад: багатоголосий закадровий
кодек: 2.0
бітрейт: 192 кбіт/с

Переклад і озвучення виконано: UAVoice
Переклад: Maryena, nikolay72.
Озвучка: Мар'єна, Макс Ткачук, Сергій Шеремет, Остап Карвацький, Дмитро Роєцький, Дмитро Урсуляк, Віталій Прискурій.
Монтаж та робота зі звуком: Дмитро Урсуляк (BOOGud).

Аудіо # 2:
мова: англійська
переклад: оригінал
кодек: 5.1
бітрейт: 384 кбіт/с

Субтитри:
мова: українська
тип: програмні (м'які)
формат: *.srt

Субтитри:
мова: англійська
тип: програмні (м'які)
формат: *.srt
Info
Код:
General
Unique ID                                : 185902993811255108944606423420060608049 (0x8BDB9D3FB32BB6C3B9216BEAFB70A631)
Complete name                            : Madly Madagascar (2013) [Ukr,Eng sub.Ukr,Eng] 720p [Hurtom].
Format                                   :
Format version                           : Version 4 / Version 2
File size                                : 828 MiB
Duration                                 : 21mn 11s
Overall bit rate                         : 5 466 Kbps
Movie name                               : Шалений Мадагаскар / Madly Madagascar (2013) 720p [Hurtom]
Encoded date                             : UTC 2014-06-18 17:34:11
Writing application                      : mkvmerge v7.0.0 ('Where We Going') 64bit built on Jun  9 2014 15:16:27
Writing library                          : libebml v1.3.0 + libmatroska v1.4.1
DURATION                                 : 00:20:50.840000000
NUMBER_OF_FRAMES                         : 375
NUMBER_OF_BYTES                          : 20029
_STATISTICS_WRITING_APP                  : mkvmerge v7.0.0 ('Where We Going') 64bit built on Jun  9 2014 15:16:27
_STATISTICS_WRITING_DATE_UTC             : 2014-06-18 17:34:11
_STATISTICS_TAGS                         : BPS DURATION NUMBER_OF_FRAMES NUMBER_OF_BYTES

Video
ID                                       : 1
Format                                   : AVC
Format/Info                              : Advanced Video Codec
Format profile                           : [email protected]
Format settings, CABAC                   : No
Format settings, ReFrames                : 2 frames
Codec ID                                 : V_MPEG4/ISO/AVC
Duration                                 : 21mn 11s
Bit rate                                 : 4 781 Kbps
Width                                    : 1 280 pixels
Height                                   : 718 pixels
Display aspect ratio                     : 16:9
Frame rate mode                          : Constant
Frame rate                               : 23.976 fps
Color space                              : YUV
Chroma subsampling                       : 4:2:0
Bit depth                                : 8 bits
Scan type                                : Progressive
Bits/(Pixel*Frame)                       : 0.217
Stream size                              : 724 MiB (87%)
Title                                    : Шалений Мадагаскар / Madly Madagascar / Безумный Мадагаскар: Любовная лихорадка (2013) 720p
Language                                 : English
Default                                  : Yes
Forced                                   : No
Color primaries                          : BT.709
Transfer characteristics                 : BT.709
Matrix coefficients                      : BT.709

Audio #1
ID                                       : 2
Format                                   : AC-3
Format/Info                              : Audio Coding 3
Mode extension                           : CM (complete main)
Format settings, Endianness              : Big
Codec ID                                 : A_AC3
Duration                                 : 21mn 11s
Bit rate mode                            : Constant
Bit rate                                 : 192 Kbps
Channel(s)                               : 2 channels
Channel positions                        : Front: L R
Sampling rate                            : 48.0 KHz
Bit depth                                : 16 bits
Compression mode                         : Lossy
Stream size                              : 29.1 MiB (4%)
Title                                    : MVO [UAVoice] 2.0 192 kbps [Hurtom-BOOGud]
Language                                 : Ukrainian
Default                                  : Yes
Forced                                   : Yes

Audio #2
ID                                       : 3
Format                                   : AC-3
Format/Info                              : Audio Coding 3
Mode extension                           : CM (complete main)
Format settings, Endianness              : Big
Codec ID                                 : A_AC3
Duration                                 : 21mn 11s
Bit rate mode                            : Constant
Bit rate                                 : 384 Kbps
Channel(s)                               : 6 channels
Channel positions                        : Front: L C R, Side: L R, LFE
Sampling rate                            : 48.0 KHz
Bit depth                                : 16 bits
Compression mode                         : Lossy
Stream size                              : 58.2 MiB (7%)
Title                                    : Original
Language                                 : English
Default                                  : No
Forced                                   : No

Text #1
ID                                       : 4
Format                                   : UTF-8
Codec ID                                 : S_TEXT/UTF8
Codec ID/Info                            : UTF-8 Plain Text
Title                                    : Ukr full [UAVoice]
Language                                 : Ukrainian
Default                                  : No
Forced                                   : No

Text #2
ID                                       : 5
Format                                   : UTF-8
Codec ID                                 : S_TEXT/UTF8
Codec ID/Info                            : UTF-8 Plain Text
Title                                    : Eng full [SDH]
Language                                 : English
Default                                  : No
Forced                                   : No




Джерела та подяки: &


ЗАЛИШАЙТЕСЬ ЯКОМОГА ДОВШЕ НА РОЗДАЧІ!

СКАЧАВ САМ - ДАЙ СКАЧАТИ ІНШИМ


Авторський реліз (завантажувати можна без реєстрації)
 Трекер:    Зареєстрований   

Завантажити / скачати мультфільм українською



відео для новачків



 Зареєстрований:   2014-06-18 21:17
 Розмір:   828 MB 
 Оцінка мультфільму:   6/10 (Голосів: 23)
   
bot 
робот


З нами з: 30.09.07
Востаннє: 26.05.05
Повідомлень: 17406

2014-06-18 21:24  
Тему перенесено з Короткометражні до форуму Мультфільми в HD


igor911

Ваш часовий пояс: GMT + 2 Години

Нова тема   Відповісти