Футурама: У дику зелену далич / Futurama: Into the Wild Green Yonder (2009) 720p Ukr/Eng

Нові коментарі

Нова тема   Відповісти
Автор Повідомлення
-_-B_E_N_D_E_R-_- 
Оцифрування книг Гуртом
Оцифрування книг Гуртом


З нами з: 09.01.14
Востаннє: 19.08.17
Повідомлень: 163

2014-06-18 10:40  
Футурама: У дику зелену далич / Futurama: Into the Wild Green Yonder (2009) 720p Ukr/Eng

Футурама: У дику зелену далич / Futurama: Into the Wild Green Yonder (2009) 720p Ukr/Eng


Жанр: анімація, історичний, пригодницький, фантастика, комедія
Країна: США



Кінокомпанія: 20th Century Fox
Режисер: Двейн Кері-Хілл
Актори: Біллі Вест, Кеті Сейґал, Джон ДіМаджіо, Філ Ламарр, Лорен Том, Моріс Ламарш, Тресс Макнілл

Сюжет:
У феєрії нової Футурами людство знаходиться на порозі нової чудової Зеленої Ери. Але древні сили темряви, на три роки старший, ніж сам час, повертаються, одержимі жагою руйнації. Тим часом Бендер закоханий у заміжню жінкоробота, Ліла не в ладах з законом - законом Заппа Бренігана. Остання надія всесвіту - Фрай. Так що, якщо ви у всесвіті, саме час задуматися про переїзд. Невже настав кінець Planet Express і його команді?


Тривалість: 01:29:16
Якість:
Відео:
кодек:
розмір кадру: 1280 х 720
бітрейт: 3 081 кб/с

Аудіо # 1:
мова: українська
переклад: багатоголосий закадровий
кодек: 2.0
бітрейт: 192 кб/с

Аудіо # 2:
мова: англійська
переклад: оригінал
кодек: 2.0
бітрейт: 192 кб/с

Джерело озвучення:
Info

Код:

General
Unique ID                                : 228946016198243320767402625356395094577 (0xAC3D66195BB64E70A7ADADBCF11AA231)
Complete name                            : C:\Users\Адміністратор\Downloads\Futurama. Quadrilogy (2007, 2008, 2009) 720p\Futurama - Into the Wild Green Yonder (2009) 720p Ukr.Eng.
Format                                   :
Format version                           : Version 4 / Version 2
File size                                : 2.16 GiB
Duration                                 : 1h 29mn
Overall bit rate                         : 3 467 Kbps
Encoded date                             : UTC 2014-06-17 12:33:53
Writing application                      : mkvmerge v7.0.0 ('Where We Going') 32bit built on Jun  9 2014 15:08:34
Writing library                          : libebml v1.3.0 + libmatroska v1.4.1
DURATION                                 : 01:29:16.352000000
NUMBER_OF_FRAMES                         : 167386
NUMBER_OF_BYTES                          : 128552448
_STATISTICS_WRITING_APP                  : mkvmerge v7.0.0 ('Where We Going') 32bit built on Jun  9 2014 15:08:34
_STATISTICS_WRITING_DATE_UTC             : 2014-06-17 12:33:53
_STATISTICS_TAGS                         : BPS DURATION NUMBER_OF_FRAMES NUMBER_OF_BYTES

Video
ID                                       : 1
Format                                   : AVC
Format/Info                              : Advanced Video Codec
Format profile                           : [email protected]
Format settings, CABAC                   : Yes
Format settings, ReFrames                : 8 frames
Codec ID                                 : V_MPEG4/ISO/AVC
Duration                                 : 1h 29mn
Bit rate                                 : 3 081 Kbps
Width                                    : 1 280 pixels
Height                                   : 720 pixels
Display aspect ratio                     : 16:9
Frame rate mode                          : Constant
Frame rate                               : 23.976 fps
Color space                              : YUV
Chroma subsampling                       : 4:2:0
Bit depth                                : 8 bits
Scan type                                : Progressive
Bits/(Pixel*Frame)                       : 0.139
Stream size                              : 1.88 GiB (87%)
Title                                    : Futurama Into the Wild Green Yonder
Writing library                          : core 66 r1113M cc4f807
Encoding settings                        : cabac=1 / ref=8 / deblock=1:-3:-3 / analyse=0x3:0x133 / me=umh / subme=9 / psy_rd=0.7:0.0 / mixed_ref=1 / me_range=26 / chroma_me=1 / trellis=0 / 8x8dct=1 / cqm=0 / deadzone=21,11 / chroma_qp_offset=-2 / threads=6 / nr=0 / decimate=1 / mbaff=0 / bframes=6 / b_pyramid=1 / b_adapt=2 / b_bias=0 / direct=3 / wpredb=1 / keyint=250 / keyint_min=25 / scenecut=40(pre) / rc=2pass / bitrate=3081 / ratetol=1.0 / qcomp=0.60 / qpmin=10 / qpmax=51 / qpstep=4 / cplxblur=20.0 / qblur=0.5 / ip_ratio=1.40 / pb_ratio=1.30 / aq=1:0.70
Language                                 : English
Default                                  : Yes
Forced                                   : No
DURATION                                 : 01:29:16.393000000
NUMBER_OF_FRAMES                         : 128425
NUMBER_OF_BYTES                          : 2062835231
_STATISTICS_WRITING_APP                  : mkvmerge v7.0.0 ('Where We Going') 32bit built on Jun  9 2014 15:08:34
_STATISTICS_WRITING_DATE_UTC             : 2014-06-17 12:33:53
_STATISTICS_TAGS                         : BPS DURATION NUMBER_OF_FRAMES NUMBER_OF_BYTES

Audio #1
ID                                       : 2
Format                                   : AC-3
Format/Info                              : Audio Coding 3
Mode extension                           : CM (complete main)
Format settings, Endianness              : Big
Codec ID                                 : A_AC3
Duration                                 : 1h 29mn
Bit rate mode                            : Constant
Bit rate                                 : 192 Kbps
Channel(s)                               : 2 channels
Channel positions                        : Front: L R
Sampling rate                            : 48.0 KHz
Bit depth                                : 16 bits
Compression mode                         : Lossy
Stream size                              : 123 MiB (6%)
Language                                 : Ukrainian
Default                                  : Yes
Forced                                   : Yes

Audio #2
ID                                       : 3
Format                                   : AC-3
Format/Info                              : Audio Coding 3
Mode extension                           : CM (complete main)
Format settings, Endianness              : Big
Codec ID                                 : A_AC3
Duration                                 : 1h 29mn
Bit rate mode                            : Constant
Bit rate                                 : 192 Kbps
Channel(s)                               : 2 channels
Channel positions                        : Front: L R
Sampling rate                            : 48.0 KHz
Bit depth                                : 16 bits
Compression mode                         : Lossy
Stream size                              : 123 MiB (6%)
Language                                 : English
Default                                  : No
Forced                                   : No
Скріншоти


Джерело: &
Особиста оцінка: 10 - без зайвих вагань рекомендую всім!


 Трекер:    Зареєстрований   

Завантажити / скачати мультфільм українською



відео для новачків



 Зареєстрований:   2014-06-18 10:40
 Розмір:   2.16 GB 
 Оцінка мультфільму:   9.6/10 (Голосів: 21)
   
ratbol 
Модератор HD


З нами з: 03.02.09
Востаннє: 19.08.17
Повідомлень: 1083

2014-06-18 16:07  
Скріншоти мають бути у форматі png
-_-B_E_N_D_E_R-_- 
Оцифрування книг Гуртом
Оцифрування книг Гуртом


З нами з: 09.01.14
Востаннє: 19.08.17
Повідомлень: 163

2014-06-18 16:16  
ratbol
А ви не підкажети як їх зробити

ratbol 
Модератор HD


З нами з: 03.02.09
Востаннє: 19.08.17
Повідомлень: 1083

2014-06-18 16:20  
При збереженні файла-скріншоту треба змінити фомат.
-_-B_E_N_D_E_R-_- 
Оцифрування книг Гуртом
Оцифрування книг Гуртом


З нами з: 09.01.14
Востаннє: 19.08.17
Повідомлень: 163

2014-06-18 16:36  
ratbol
Я поміняв скріншоти

kino. 
Модератор відео


З нами з: 27.06.10
Востаннє: 18.08.17
Повідомлень: 2897

2014-06-18 16:42  
Інші частини будуть?
-_-B_E_N_D_E_R-_- 
Оцифрування книг Гуртом
Оцифрування книг Гуртом


З нами з: 09.01.14
Востаннє: 19.08.17
Повідомлень: 163

2014-06-18 16:46  
Цитата:
Інші частини будуть?

Будуть, але не всі завтра викладу "Футурама Гра Бендера"

lpershyi 
Попереджень: 2
Попереджень: 2 


З нами з: 04.01.11
Востаннє: 03.08.17
Повідомлень: 2743

2014-06-19 03:51  
яка тут озвучка, невже від Студії ISP Film, що була в релізі за 2011 рік, який чомусь вже пошук не знаходить?
-_-B_E_N_D_E_R-_- 
Оцифрування книг Гуртом
Оцифрування книг Гуртом


З нами з: 09.01.14
Востаннє: 19.08.17
Повідомлень: 163

2014-06-19 09:41  
Цитата:
яка тут озвучка, невже від Студії ISP Film, що була в релізі за 2011 рік, який чомусь вже пошук не знаходить?

Так озвучка від ISP Film з цього релізу

boroznaya 
VIP


З нами з: 02.11.12
Востаннє: 19.08.17
Повідомлень: 2264

2017-06-05 19:52  
Не осилила і цієї частини. Шкода витраченого часу...
Ваш часовий пояс: GMT + 2 Години

Нова тема   Відповісти