Напів зламана музична скринька / Kowarekake no Orgel (2009) 720p Urk/Jap | Sub Ukr

Нові коментарі

Нова тема   Відповісти
Автор Повідомлення
Річард 
Відео Гуртом - озвучення
Відео Гуртом - озвучення


З нами з: 17.01.10
Востаннє: 18.09.18
Повідомлень: 513

2014-06-16 23:26  
Напів зламана музична скринька / Kowarekake no Orgel (2009) 720p Urk/Jap | Sub Ukr

Напів зламана музична скринька / Kowarekake no Orgel (2009) 720p Urk/Jap | Sub Ukr


Жанр: Жанр: Драма, повсякденність
Країна: Японія

Кінокомпанія: ElectromagneticWave
Режисер: Кавагуті Кеїтіро
Сюжет:
Одного разу в дощовий день, музикант Кейчіро знаходить зламаного андроїда. Він дуже старається зремонтувати його, незважаючи на те, що андроїд старої моделі і деталі до нього уже не виготовляють. Тому Кейчіро змирився із тим, що його доведеться викинути. Яке ж було його здивування, коли він дізнався, що "Квіточка" прокинулась вранці і приготувала йому сніданок! Безневинна і добра, вона наповнює життя Кейчіро сенсом, а він допомагає їй дізнатися життя і світ.


Тривалість: 1 серія: 30 хв
Якість:
Відео:
кодек:
розмір кадру: 1280 х 720
бітрейт: 2 091 Кбіт/сек

Аудіо # 1:
мова: українська(Chewey&Maslinka)
переклад: двоголосий закадровий
кодек: 2.0
бітрейт: 256kbps

Аудіо # 2:
мова: українська(Gwean&Maslinka)
переклад: двоголосий закадровий
кодек: A_AAC-2
бітрейт: 205kbps

Аудіо # 3:
мова: японська
переклад: оригінал
кодек: A_AAC-2
бітрейт: 199 kbps

Субтитри:
мова: українська
тип: програмні (м'які)
формат: *.
Info
Загальна інформація

Unique ID : 172344538668376675556737014903756166296 (0x81A859CC8A94C874A935347C519E1498)
Complete name : F:\[Chewey_&_Maslinka]_Kowarekake_no_Orgel_-_OVA\[Chewey_&_Maslinka]_Kowarekake_no_Orgel_-_OVA_[BDRip_720p_x264_AC3] (1).
Format :
Format version : Version 4 / Version 2
File size : 435 MiB
Duration : 30 min 0 s
Overall bit rate : 2 027 kb/s
Encoded date : UTC 2015-12-28 14:15:10
Writing application : v7.5.0 ('Glass Culture') 64bit built on Jan 4 2015 16:48:44
Writing library : libebml v1.3.1 + v1.4.2
Attachments : Architen.ttf / BEFRISKY.TTF / KozGoPr6N-Bold.otf / KozGoPr6N-Medium.otf / KozGoPr6N-Regular.otf / MyriadPro-Bold.otf / MyriadPro-BoldCond.otf / MyriadPro-BoldCondIt.otf / MyriadPro-BoldIt.otf / MyriadPro-Cond.otf / MyriadPro-CondIt.otf / MyriadPro-It.otf / MyriadPro-Regular.otf / MyriadPro-Semibold.otf / MyriadPro-SemiboldIt.otf / SWZNRRWB.TTF / SWZNRRWI.TTF / SWZNRRWN.TTF / SWZNRRWT.TTF / TT0169M.TTF / TT0170M.TTF

Video
ID : 1
Format : AVC
Format/Info : Advanced Video Codec
Format profile : [email protected]
Format settings : CABAC / 16 Ref Frames
Format settings, CABAC : Yes
Format settings, ReFrames : 16 frames
Codec ID : V_MPEG4/ISO/AVC
Duration : 30 min 0 s
Bit rate : 1 554 kb/s
Width : 1 280 pixels
Height : 720 pixels
Display aspect ratio : 16:9
Frame rate mode : Constant
Frame rate : 23.976 (24000/1001) FPS
Color space : YUV
Chroma subsampling : 4:2:0
Bit depth : 8 bits
Scan type : Progressive
Bits/(Pixel*Frame) : 0.070
Stream size : 333 MiB (77%)
Title : 720p
Writing library : core 114 r1924 08d04a4
Encoding settings : cabac=1 / ref=16 / deblock=1:-1:-1 / analyse=0x3:0x133 / me=umh / subme=10 / psy=1 / psy_rd=1.00:0.10 / mixed_ref=1 / me_range=24 / chroma_me=1 / trellis=2 / 8x8dct=1 / cqm=0 / deadzone=21,11 / fast_pskip=0 / chroma_qp_offset=-3 / threads=3 / sliced_threads=0 / nr=0 / decimate=1 / interlaced=0 / constrained_intra=0 / bframes=16 / b_pyramid=2 / b_adapt=2 / b_bias=0 / direct=3 / weightb=1 / open_gop=0 / weightp=2 / keyint=250 / keyint_min=23 / scenecut=40 / intra_refresh=0 / rc_lookahead=60 / rc=crf / mbtree=1 / crf=16.0 / qcomp=0.60 / qpmin=0 / qpmax=69 / qpstep=4 / ip_ratio=1.40 / aq=1:1.10 / zones=1132,1344,b=1.2/38967,39108,b=1.1
Language : Japanese
Default : Yes
Forced : Yes
Color range : Limited
Matrix coefficients : BT.709

Audio #1
ID : 2
Format : AC-3
Format/Info : Audio Coding 3
Codec ID : A_AC3
Duration : 30 min 0 s
Bit rate mode : Constant
Bit rate : 192 kb/s
Channel(s) : 2 channels
Channel positions : Front: L R
Sampling rate : 48.0 kHz
Frame rate : 31.250 FPS (1536 SPF)
Bit depth : 16 bits
Compression mode : Lossy
Stream size : 41.2 MiB (9%)
Language : Ukrainian
Service kind : Complete Main
Default : Yes
Forced : No

Audio #2
ID : 3
Format :
Format/Info : Advanced Audio Codec
Format profile : LC
Codec ID : A_AAC-2
Duration : 30 min 0 s
Bit rate : 199 kb/s
Channel(s) : 2 channels
Channel positions : Front: L R
Sampling rate : 48.0 kHz
Frame rate : 46.875 FPS (1024 SPF)
Compression mode : Lossy
Stream size : 42.8 MiB (10%)
Title : original 2.0
Language : Japanese
Default : No
Forced : No

Text
ID : 4
Format :
Codec ID : S_TEXT/
Codec ID/Info : Advanced Sub Station Alpha
Duration : 28 min 35 s
Bit rate : 5 b/s
Count of elements : 20
Compression mode : Lossless
Stream size : 1.05 KiB (0%)
Language : Ukrainian
Default : Yes
Forced : Yes
Скріншоти
Реліз від: та
Переклад: Chewey
Ролі озвучили: Chewey та Gwean&Maslinka
Робота зі звуком: Gwean
Постер: Пан_Олександр


Авторський реліз (завантажувати можна без реєстрації)
 Трекер:    Зареєстрований   

Завантажити / скачати аніме українською



відео для новачків



 Зареєстрований:   2018-07-10 08:32
 Розмір:   559 MB 
 Оцінка аніме:   9.9/10 (Голосів: 11)
   
Пан_Олександр 
Відео Гуртом - дизайнер
Відео Гуртом - дизайнер


З нами з: 21.10.10
Востаннє: 18.09.18
Повідомлень: 166

2014-06-23 18:13  
Дякую за озвучування. Дуже сподобалося саме аніме, але кінець сумний.
Maslinka 
Частий відвідувач


З нами з: 18.09.12
Востаннє: 16.09.18
Повідомлень: 49

2014-07-03 01:51  
Пан_Олександр
Завжди будь ласка)
На жаль, на всі аніме хеппі-ендів не вистачає...

Abaddon... 
Поважний учасник


З нами з: 30.11.13
Востаннє: 29.03.17
Повідомлень: 170

2016-02-26 01:50  
Сильне аніме, дуже сильне! Байдужим не залишає.
Дякую за переклад.

Річард 
Відео Гуртом - озвучення
Відео Гуртом - озвучення


З нами з: 17.01.10
Востаннє: 18.09.18
Повідомлень: 513

2018-07-10 08:33  
►▶▸ДОДАНО СПЕШЛИ ТА ЗАМІНЕНО ЗВУК ОВИ НА ЯКІСНІШИЙ!◂◀◄

11FrYkT 
Модератор відео


З нами з: 20.02.11
Востаннє: 18.09.18
Повідомлень: 5027

2018-07-10 09:39  
Річард написано:
Напівзламана музична скринька/Kowarekake no Orgel (2009) 720p

поставити пробіли, також 720р що? яка якість?
Річард написано:

кодек: 2.0
бітрейт: 448 kbps

ні

11FrYkT 
Модератор відео


З нами з: 20.02.11
Востаннє: 18.09.18
Повідомлень: 5027

2018-07-10 15:23  
Річард написано:
720p

Річард написано:

Format settings : CABAC / 16 Ref Frames
Format settings, CABAC : Yes
Format settings, ReFrames : 16 frames


будуть проблеми з відворенням, знайдіть краще відео

Ваш часовий пояс: GMT + 2 Години

Нова тема   Відповісти