Крижане серце / Frozen (2013) 1080p 3D SideBySide Ukr/Eng | Sub Eng

Нові коментарі

Нова тема   Відповісти
Автор Повідомлення
dinosaurus 
Частий відвідувач


З нами з: 13.12.10
Востаннє: 17.07.17
Повідомлень: 36

2014-06-15 16:06  
Крижане серце / Frozen (2013) 1080p 3D SideBySide Ukr/Eng | Sub Eng

Крижане серце / Frozen (2013) 1080p 3D SideBySide Ukr/Eng | Sub Eng


Жанр: анімація, пригодницький, комедія
Країна: США



Кінокомпанія: Walt Disney Animation Studios, Walt Disney Pictures
Режисер: Кріс Бак, Дженніфер Лі
Актори: Крістен Белл, Ідіна Мензел, Джонатан Ґрофф, Джош Ґад, Сантіно Фонтана, Алан Тьюдік, Кіаран Гайндс, Кріс Вільямс, Стівен Джей Андерсон, Мая Вілсон

Сюжет:
Коли стародавнє пророцтво здійснюється і королівство занурюється в обійми вічної зими, троє безстрашних героїв - принцеса Анна, відважний Крістофф і його вірний олень Свен - відправляються в гори, щоб знайти сестру Анни, Ельзу, яка може зняти з країни закляття. По дорозі їх чекає безліч захоплюючих сюрпризів і захоплюючих пригод. Анні і Крістоффу належить об'єднатися і протистояти могутньої стихії, щоб врятувати королівство і тих, хто їм дорогий...


Тривалість: 01:42:13
Якість:
Відео:
кодек:
розмір кадру: 1920x856
бітрейт: 8 354 кб/с

Аудіо # 1:
мова: українська
переклад: професійний дубльований
кодек: 5.1
бітрейт: 384 кб/с

Аудіо # 2:
мова: англійська
переклад: оригінал
кодек: 5.1
бітрейт: 1536 кб/с

Аудіо # 3:
мова: англійська
переклад: оригінал
кодек: 2.0
бітрейт: 320 кб/с

Субтитри:
мова: українська
тип: програмні (м'які)
формат: *.srt

Субтитри:
мова: англійська
тип: програмні (м'які)
формат: *.srt
Info
General
Unique ID : 220030600662438972289868811398493437066 (0xA5885A2D09CEE2D0A72DE579C566FC8A)
Complete name : D:\film\animation\Frozen\Frozen (2013) 1080p 3D SideBySide [Ukr_Eng] [Hurtom].
Format :
Format version : Version 4 / Version 2
File size : 5.96 GiB
Duration : 1h 42mn
Overall bit rate : 8 354 Kbps
Encoded date : UTC 2014-06-14 13:58:21
Writing application : mkvmerge v7.0.0 ('Where We Going') 32bit built on Jun 9 2014 15:08:34
Writing library : libebml v1.3.0 + libmatroska v1.4.1
DURATION : 01:42:12.919000000
NUMBER_OF_FRAMES : 147043
NUMBER_OF_BYTES : 4705205023
_STATISTICS_WRITING_APP : mkvmerge v7.0.0 ('Where We Going') 32bit built on Jun 9 2014 15:08:34
_STATISTICS_WRITING_DATE_UTC : 2014-06-14 13:58:21
_STATISTICS_TAGS : BPS DURATION NUMBER_OF_FRAMES NUMBER_OF_BYTES

Video
ID : 1
Format : AVC
Format/Info : Advanced Video Codec
Format profile : [email protected]
Format settings, CABAC : Yes
Format settings, ReFrames : 5 frames
Codec ID : V_MPEG4/ISO/AVC
Duration : 1h 42mn
Bit rate : 6 140 Kbps
Width : 1 920 pixels
Height : 856 pixels
Display aspect ratio : 2.227
Frame rate mode : Constant
Frame rate : 23.976 fps
Color space : YUV
Chroma subsampling : 4:2:0
Bit depth : 8 bits
Scan type : Progressive
Bits/(Pixel*Frame) : 0.156
Stream size : 4.27 GiB (72%)
Writing library : core 142 r2431 ac76440
Encoding settings : cabac=1 / ref=5 / deblock=1:-2:-2 / analyse=0x3:0x113 / me=umh / subme=9 / psy=1 / psy_rd=1.00:0.00 / mixed_ref=1 / me_range=16 / chroma_me=1 / trellis=2 / 8x8dct=1 / cqm=0 / deadzone=21,11 / fast_pskip=1 / chroma_qp_offset=-2 / threads=12 / lookahead_threads=1 / sliced_threads=0 / nr=0 / decimate=1 / interlaced=0 / bluray_compat=0 / constrained_intra=0 / bframes=3 / b_pyramid=2 / b_adapt=2 / b_bias=0 / direct=3 / weightb=1 / open_gop=0 / weightp=2 / keyint=240 / keyint_min=23 / scenecut=40 / intra_refresh=0 / rc_lookahead=50 / rc=2pass / mbtree=1 / bitrate=6140 / ratetol=1.0 / qcomp=0.60 / qpmin=0 / qpmax=69 / qpstep=4 / cplxblur=20.0 / qblur=0.5 / vbv_maxrate=62500 / vbv_bufsize=78125 / nal_hrd=none / filler=0 / ip_ratio=1.40 / aq=1:1.00
Default : Yes
Forced : No

Audio #1
ID : 2
Format : AC-3
Format/Info : Audio Coding 3
Mode extension : CM (complete main)
Format settings, Endianness : Big
Codec ID : A_AC3
Duration : 1h 42mn
Bit rate mode : Constant
Bit rate : 384 Kbps
Channel(s) : 6 channels
Channel positions : Front: L C R, Side: L R, LFE
Sampling rate : 48.0 KHz
Bit depth : 16 bits
Compression mode : Lossy
Stream size : 281 MiB (5%)
Title : 5.1 @ 384 kbps
Language : Ukrainian
Default : Yes
Forced : Yes

Audio #2
ID : 3
Format :
Format/Info : Digital Theater Systems
Mode : 16
Format settings, Endianness : Big
Codec ID : A_DTS
Duration : 1h 42mn
Bit rate mode : Constant
Bit rate : 1 509 Kbps
Channel(s) : 6 channels
Channel positions : Front: L C R, Side: L R, LFE
Sampling rate : 48.0 KHz
Bit depth : 24 bits
Compression mode : Lossy
Delay relative to video : 11ms
Stream size : 1.08 GiB (18%)
Title : 5.1 @ 1536 kbps
Language : English
Default : No
Forced : No

Audio #3
ID : 4
Format : AC-3
Format/Info : Audio Coding 3
Format profile : Dolby Digital
Mode extension : CM (complete main)
Format settings, Endianness : Big
Codec ID : A_AC3
Duration : 1h 42mn
Bit rate mode : Constant
Bit rate : 320 Kbps
Channel(s) : 2 channels
Channel positions : Front: L R
Sampling rate : 48.0 KHz
Bit depth : 16 bits
Compression mode : Lossy
Stream size : 234 MiB (4%)
Title : 2.0 @ 320 kbps - Descriptive
Language : English
Default : No
Forced : No

Text #1
ID : 5
Format : UTF-8
Codec ID : S_TEXT/UTF8
Codec ID/Info : UTF-8 Plain Text
Title : Forced
Language : Ukrainian
Default : Yes
Forced : Yes

Text #2
ID : 6
Format : UTF-8
Codec ID : S_TEXT/UTF8
Codec ID/Info : UTF-8 Plain Text
Title : SDH
Language : English
Default : No
Forced : No

Text #3
ID : 7
Format : UTF-8
Codec ID : S_TEXT/UTF8
Codec ID/Info : UTF-8 Plain Text
Title : SDH-COLORED
Default : No
Forced : No

Menu
00:00:00.000 : en:00:00:00.000
00:05:59.818 : en:00:05:59.818
00:11:37.947 : en:00:11:37.947
00:19:53.734 : en:00:19:53.734
00:31:03.195 : en:00:31:03.195
00:38:39.484 : en:00:38:39.484
00:44:21.284 : en:00:44:21.284
00:50:51.507 : en:00:50:51.507
00:57:48.381 : en:00:57:48.381
01:02:57.399 : en:01:02:57.399
01:09:36.047 : en:01:09:36.047
01:13:34.869 : en:01:13:34.869
01:18:07.599 : en:01:18:07.599
01:22:33.740 : en:01:22:33.740
01:27:10.809 : en:01:27:10.809
01:32:33.506 : en:01:32:33.506
Скріншоти 2D (ліве зображення стереопари з корекцією пропорцій)






Скріншоти 3D








Джерело: &
Особиста оцінка: 10 - без зайвих вагань рекомендую всім!


 Трекер:    Зареєстрований   

Завантажити / скачати мультфільм українською



відео для новачків



 Зареєстрований:   2014-06-15 16:06
 Розмір:   5.96 GB 
 Оцінка мультфільму:   9.9/10 (Голосів: 17)
   
Інші релізи
   Крижане серце / Frozen (2013) 1080p [48 fps] Ukr/Eng | Sub Eng/Fra/Esp smsfdg  9 / 0   27.59 GB   2014-08-30 20:41 
   Крижане серце / Frozen (2013) 720p-mini [60fps] Drool  13 / 0   4.35 GB   2014-08-20 15:44 
   Закрижаніла / Крижане серце / Frozen (2013) 720p Eng | Sub Ukr Gedet  8 / 0   2.47 GB   2014-07-28 19:20 
   Крижане серце / Frozen (2013) Remux 1080p Ukr/Eng | Sub Eng/Fr/Es smsfdg  2 / 0   20.41 GB   2014-07-19 21:16 
   Крижане серце / Frozen (2013) AVC BASTERD-94  19 / 0   978 MB   2014-07-07 21:30 
   Крижане серце / Frozen (2013) 720p-mini Drool  13 / 0   2.16 GB   2014-05-05 16:48 
   Крижане серце / Frozen (2013) 1080p Ukr/Eng | Sub Eng 11FrYkT  23 / 0   8.01 GB   2014-04-30 10:02 
   Крижане серце / Frozen (2013) 720p Ukr/Eng | Sub Eng 11FrYkT  26 / 0   4.05 GB   2014-04-30 08:30 
   Крижане серце / Frozen (2013) Ukr/Eng | Sub Ukr/Eng Gelios  156 / 0   1.45 GB   2014-04-29 23:12 
   Крижане серце / Frozen (2013) AVC Ukr/Eng | Sub Eng 11FrYkT  10 / 0   2.14 GB   2014-04-29 23:09 
KatyaSharko 
Новенький


З нами з: 30.04.14
Востаннє: 07.11.14
Повідомлень: 1

2014-09-05 11:43  
Скажіть будь ласка чому при відтворенні екран поділений на 2 частини на яких те саме?
ProgBassing 
Відео Гуртом - фільмокрай
Відео Гуртом - фільмокрай


З нами з: 08.03.08
Востаннє: 22.08.17
Повідомлень: 630

2014-09-05 11:58  
KatyaSharko, це ж 1080p 3D SideBySide - для перегляду 3D зі серіо-окулярами, тому й розділено навпіл, читайте уважніше опис, бо ж там і скріни є для наочності, вам краще взяти цей https://toloka.to/t55843 або цей https://toloka.to/t54781 реліз Happy
ata 
VIP


З нами з: 22.09.08
Востаннє: 20.08.17
Повідомлень: 339

2014-12-14 00:08  
KatyaSharko
Екран не повинен ділитися навпіл. У вас не вибрана необхідна функція 3d на телевізорі. У налаштуваннях 3d потрібно лише вибрати відповідний його вид та розпочати перегляд. Особисто у мене від цього "SideBySide" очі на лоба лізуть, набагато краще сприймається 3d типу "Half OverUnder" (прошу користувачів толоки більше викладати матеріалу саме у такому форматі)

ValicV 
Свій


З нами з: 19.01.10
Востаннє: 22.08.17
Повідомлень: 87

2016-01-09 23:50  
Чи у кого виникають проблеми з переглядом?
У мене на телевізорі не можливо дивитися, дуже сильно давить на очі!
І на відміну від інших 3d даний чомусь автоматично не визначається, а режим потрібно вмикати примусово.

Ваш часовий пояс: GMT + 2 Години

Нова тема   Відповісти