Луні Тюнз: Падіння койота / Looney Tunes: Coyote Falls (2010) BD-Remux 1080p Ukr/Eng

Нові коментарі

Нова тема   Відповісти
Автор Повідомлення
Ukr Voice Team 
Відео Гуртом - озвучення
Відео Гуртом - озвучення


З нами з: 31.12.13
Востаннє: 11.08.15
Повідомлень: 61

2014-06-14 12:56  
Луні Тюнз: Падіння койота / Looney Tunes: Coyote Falls (2010) BD-Remux 1080p Ukr/Eng

Луні Тюнз: Падіння койота / Looney Tunes: Coyote Falls (2010) BD-Remux 1080p Ukr/Eng


Жанр: анімація, комедія, сімейний, короткометражка
Країна: США



Режисер: Мет'ю О'Калаган
Сюжет:
Відчуття свободи у великій пустелі, тільки додає Койоту відчаю. Цього разу, він вирішив використати арсенал сучасних пристроїв: замовив еластичний канат для "банджі-джампінгу", і приготував принаду із пташиного корму, під автодорожнім мостом.
Це надійний план, який бере до уваги все... крім транспорту, що наближається.


Тривалість: 00:03:00
Якість: BD-Remux
Відео:
кодек:
розмір кадру: 1920 х 1 080
бітрейт: 11,6 mb/s

Аудіо # 1:
мова: українська
переклад: дубльований | UkrVoiceTeam
кодек: 5.1
бітрейт: 448 кб/с

Аудіо # 2:
мова: англійська
переклад: оригінал
кодек: 5.1
бітрейт: 640 кб/с

Постер: FaB0SS
Переклад: FaB0SS
Скріншоти


Info
General
Unique ID : 179981230300348551067411188755031758675 (0x87671FC41ED1DC0EA9EE5C43B4D99753)
Complete name : D:\Завантаження\Озвучене\Looney Tunes Coyote Falls 1080p BD-Remux [Ukr-Eng] UkrVioceTeam.
Format :
Format version : Version 4 / Version 2
File size : 278 MiB
Duration : 3mn 0s
Overall bit rate mode : Variable
Overall bit rate : 13.0 Mbps
Encoded date : UTC 2014-06-14 09:32:50
Writing application : mkvmerge v6.6.0 ('The Edge Of The In Between') built on Dec 1 2013 17:55:00
Writing library : libebml v1.3.0 + libmatroska v1.4.1

Video
ID : 1
Format : AVC
Format/Info : Advanced Video Codec
Format profile : [email protected]
Format settings, CABAC : Yes
Format settings, ReFrames : 2 frames
Codec ID : V_MPEG4/ISO/AVC
Duration : 3mn 0s
Bit rate mode : Variable
Bit rate : 11.6 Mbps
Width : 1 920 pixels
Height : 1 080 pixels
Display aspect ratio : 16:9
Frame rate mode : Constant
Frame rate : 23.976 fps
Color space : YUV
Chroma subsampling : 4:2:0
Bit depth : 8 bits
Scan type : Progressive
Bits/(Pixel*Frame) : 0.234
Stream size : 250 MiB (90%)
Title : Remux by FaB0SS
Default : Yes
Forced : No

Audio #1
ID : 2
Format : AC-3
Format/Info : Audio Coding 3
Mode extension : CM (complete main)
Format settings, Endianness : Big
Codec ID : A_AC3
Duration : 3mn 0s
Bit rate mode : Constant
Bit rate : 448 Kbps
Channel(s) : 6 channels
Channel positions : Front: L C R, Side: L R, LFE
Sampling rate : 48.0 KHz
Bit depth : 16 bits
Compression mode : Lossy
Stream size : 9.63 MiB (3%)
Title : озвучено UkrVoiceTeam
Language : Ukrainian
Default : Yes
Forced : No

Audio #2
ID : 3
Format : AC-3
Format/Info : Audio Coding 3
Mode extension : CM (complete main)
Format settings, Endianness : Big
Codec ID : A_AC3
Duration : 3mn 0s
Bit rate mode : Constant
Bit rate : 640 Kbps
Channel(s) : 6 channels
Channel positions : Front: L C R, Side: L R, LFE
Sampling rate : 48.0 KHz
Bit depth : 16 bits
Compression mode : Lossy
Stream size : 13.8 MiB (5%)
Language : English
Default : No
Forced : No
Джерело: UkrVoiceTeam &
Особиста оцінка: 10 - без зайвих вагань рекомендую всім!


Авторський реліз (завантажувати можна без реєстрації)
 Трекер:    Зареєстрований   

Завантажити / скачати фільм українською



відео для новачків



 Зареєстрований:   2014-06-14 12:56
 Розмір:   278 MB 
 Оцінка фільму:   9.4/10 (Голосів: 16)
 Looney Tunes Coyote Falls 1080p BD-Remux [Ukr-Eng] UkrVioceTeam
   
Sllavko 
Свій


З нами з: 10.06.12
Востаннє: 12.10.17
Повідомлень: 93

2016-11-30 22:12  
скучне(
Ваш часовий пояс: GMT + 2 Години

Нова тема   Відповісти