Onuka - Look [ЕР] (2014) [FLAC] | Electronic / Ethno

Нові коментарі

Нова тема   Відповісти
Автор Повідомлення
muhomor 
VIP


З нами з: 04.12.11
Востаннє: 01.06.17
Повідомлень: 297

2014-06-14 09:56  
Onuka - Look [ЕР] (2014) [FLAC] | Electronic / Ethno

Onuka - Look [ЕР] (2014) [FLAC] | Electronic / Ethno


Стиль: Electronic / Ethno / Downtempo / Eelectropop
Країна, місто: Україна, Київ
Сайти: Офіційний сайт
Видавець: Enjoy! Records
Виконавці:
Ната Жижченко (екс-Tomato Jaws) – тексти, вокал
Євген Філатов (The Maneken) – музика, продюсування
Пісні:
    01. When I Met You
    02. Look
    03. Misto
    04. Time
    05. Look (Tigerskin remix)
    Audiochecker

    AUDIOCHECKER v2.0 beta (build 457) - by Dester - [email protected]
    ~~~~~~~~~~~~~~~~~~~~~~~~~~~~~~~~~~

    Started at: суббота, 14. 06. 2014. - 9:36.31
    5 files found

    1 -===- D:\hurtom.com\Onuka - «Look» [EP] (2014) (FLAC)\01 Onuka When I Met U.flac
    Extracted successfully
    Conclusion: this track is CDDA with probability 100%
    Tempfile successfully deleted.

    2 -===- D:\hurtom.com\Onuka - «Look» [EP] (2014) (FLAC)\02 Onuka Look.flac
    Extracted successfully
    Conclusion: this track is CDDA with probability 100%
    Tempfile successfully deleted.

    3 -===- D:\hurtom.com\Onuka - «Look» [EP] (2014) (FLAC)\03 Onuka Misto.flac
    Extracted successfully
    Conclusion: this track is CDDA with probability 100%
    Tempfile successfully deleted.

    4 -===- D:\hurtom.com\Onuka - «Look» [EP] (2014) (FLAC)\04 Onuka Time.flac
    Extracted successfully
    Conclusion: this track is CDDA with probability 100%
    Tempfile successfully deleted.

    5 -===- D:\hurtom.com\Onuka - «Look» [EP] (2014) (FLAC)\05 Onuka Look (Tigerskin remix).flac
    Extracted successfully
    Conclusion: this track is CDDA with probability 100%
    Tempfile successfully deleted.

    Finished at: суббота, 14. 06. 2014. - 9:39.31 (operation time: 0:03.00)
    Log

    Exact Audio Copy V1.0 beta 3 from 29. August 2011

    Отчёт EAC об извлечении, выполненном 14. июня 2014, 9:28

    Onuka / 2014 - Look (EP]

    Дисковод: ASUS DRW-2014S1T Adapter: 2 ID: 8

    Режим чтения : Достоверность
    Использование точного потока : Да
    Отключение кэша аудио : Да
    Использование указателей C2 : Нет

    Коррекция смещения при чтении : 6
    Способность читать области Lead-in и Lead-out : Нет
    Заполнение пропущенных сэмплов тишиной : Да
    Удаление блоков с тишиной в начале и конце : Нет
    При вычислениях CRC использовались нулевые сэмплы : Да
    Интерфейс : Встроенный Win32-интерфейс для Win NT/2000
    Обработка зазоров : Добавлено к предыдущему треку

    Выходной формат : Пользовательский кодировщик
    Выбранный битрейт : 128 kBit/s
    Качество : Высокий
    Добавление ID3-тега : Нет
    Утилита сжатия : C:\Program Files\Exact Audio Copy\Flac\flac.exe
    Дополнительные параметры : -V -8 -T "Genre=%genre%" -T "Artist=%artist%" -T "Title=%title%" -T "Album=%albumtitle%" -T "Date=%year%" -T "Tracknumber=%tracknr%" -T "Comment=%comment%" %source%

    TOC извлечённого CD

    Трек | Старт | Длительность | Начальный сектор | Конечный сектор
    ---------------------------------------------------------------------
    1 | 0:00.00 | 4:08.15 | 0 | 18614
    2 | 4:08.15 | 3:37.30 | 18615 | 34919
    3 | 7:45.45 | 5:23.67 | 34920 | 59211
    4 | 13:09.37 | 5:42.29 | 59212 | 84890
    5 | 18:51.66 | 7:10.04 | 84891 | 117144

    Трек 1

    Имя файла D:\Documents and Settings\user\Рабочий стол\«»—0–\01 Onuka When I Met U.wav

    Длина предзазора 0:00:02.00

    Пиковый уровень 99.3 %
    Скорость извлечения 5.1 X
    Качество трека 100.0 %
    CRC копии 4611DD70
    Копирование... OK

    Трек 2

    Имя файла D:\Documents and Settings\user\Рабочий стол\«»—0–\02 Onuka Look.wav

    Пиковый уровень 99.7 %
    Скорость извлечения 5.5 X
    Качество трека 100.0 %
    CRC копии D8F830F4
    Копирование... OK

    Трек 3

    Имя файла D:\Documents and Settings\user\Рабочий стол\«»—0–\03 Onuka Misto.wav

    Пиковый уровень 99.1 %
    Скорость извлечения 6.3 X
    Качество трека 100.0 %
    CRC копии B1B30DA9
    Копирование... OK

    Трек 4

    Имя файла D:\Documents and Settings\user\Рабочий стол\«»—0–\04 Onuka Time.wav

    Пиковый уровень 99.3 %
    Скорость извлечения 7.1 X
    Качество трека 100.0 %
    CRC копии 94136908
    Копирование... OK

    Трек 5

    Имя файла D:\Documents and Settings\user\Рабочий стол\«»—0–\05 Onuka Look (Tigerskin remix).wav

    Пиковый уровень 100.0 %
    Скорость извлечения 8.0 X
    Качество трека 100.0 %
    CRC копии 833EB756
    Копирование... OK

    Ошибок не произошло

    Конец отчёта

    ==== Контрольная сумма отчёта 5FDEC6F5CF45EE1E0115101A181BEE0BD286059724F2F4938C91AEE53A0B7013 ====

Тривалість: 00:26:00
Мова: українська (3), англійська (1–2, 4–5)
Аудіо-кодек: FLAC
Бітрейт: 903 кб/с
Джерело: ріп зроблено з ліцензійного компакт-диска із власної фонотеки
Додаткова інформація:


Якщо Ви справді бажаєте підтримати українське - після прослуховування, якщо музика вам сподобалась, придбайте ліцензійний диск. Підтримаймо вітчизняних виконавців!


Срібний реліз (на рейтинг впливає 50% завантаженого)
 Трекер:    Зареєстрований   

Завантажити / скачати українську музику



відео для новачків



 Зареєстрований:   2014-06-14 09:56
 Розмір:   168 MB 
 Оцінка музики:   9.4/10 (Голосів: 35)
   
natashelka 
VIP


З нами з: 23.05.10
Востаннє: 16.08.17
Повідомлень: 453

2014-06-15 13:38  
Мені сподобалось. Немає нічого зайвого. А це перша ознака довершеності.
SpeedCore{Dp} 
Новенький


З нами з: 15.07.14
Востаннє: 07.08.17
Повідомлень: 20

2014-07-16 22:59  
Приємна музика
Taiwo 
Новенький


З нами з: 16.12.14
Востаннє: 14.08.17
Повідомлень: 1

2014-12-16 01:11  
якісна українська електронна музика
ssTAss 
Модератор музики


З нами з: 05.07.08
Востаннє: 17.08.17
Повідомлень: 11750

2015-02-13 01:12  
Onuka презентувала офіційне відео до пісні «Time»
Цитата:
Режисером кліпу став Євген Філатов, більш відомий широкому загалу за своїм музичним проектом The Maneken. Зйомки відео зайняли майже тиждень і проходили в чотирьох різних локаціях: степах Одеської області на березі лиману Куяльник, околицях Києва, столичному Ботанічному саду та у студійному павільйоні. Костюми для кліпу були створені Patoka Studio.

«Time» став другим після «Look» офіційним промо-роликом у відеографії сольного проекту Нати Жижченко. Екранізована композиція спочатку побачила світ наприкінці весни минулого року як частина міні-альбому «Look», а через п’ять місяців цей трек, як і три інших з міньйону, увійшли до дебютного лонгплею «Onuka». В перший же тиждень після виходу платівка очолила український хіт-парад iTunes.

http://musicinua.com/onuka-prezentuvala-ofitsijne-video-pisni-time/


Ваш часовий пояс: GMT + 2 Години

Нова тема   Відповісти