Майдан своїми очима / Майдан своими глазами (серії 01-06) (2013/2014) AVC

Нові коментарі

Нова тема   Відповісти
Автор Повідомлення
Drool 
VIP


З нами з: 17.04.10
Востаннє: 12.11.19
Повідомлень: 1521

2014-06-12 16:39  
Майдан своїми очима / Майдан своими глазами (серії 01-06) (2013/2014) AVC
Інші варіанти постера




Жанр: документальний
Країна: Україна, Росія

Режисер: В'ячеслав Сікора
Сюжет:
Серія документальних фільмів режисера В'ячеслава Сікори, знята ним особисто. Без прикрас, як все було...


Тривалість: 00:41:14, 00:39:35, 00:45:55, 00:39:55, 00:46:57, 00:29:08
Якість: AVC
Відео:
кодек: MP4
розмір кадру: 720x576@788x576 (1, 2, 3 серії), 720x480@720x528 (4, 5, 6 серії)
бітрейт: ~2900 кб/с

Аудіо:
мова: українська, російська
переклад: оригінал
кодек: 2.0
бітрейт: 192 кб/с
Info усієї роздачі
General
Complete name : /mnt/disk_d/Video/Майдан - своими глазами/Майдан - своими глазами. Вторая серия.mp4
Format : MPEG-4
Format profile : Base Media / Version 2
Codec ID : mp42
File size : 897 MiB
Duration : 39mn 35s
Overall bit rate mode : Variable
Overall bit rate : 3 168 Kbps
Encoded date : UTC 2014-04-07 01:58:24
Tagged date : UTC 2014-04-07 01:58:24
©TIM : 00:45:29:22
©TSC : 25
©TSZ : 1

Video
ID : 1
Format : AVC
Format/Info : Advanced Video Codec
Format profile : [email protected]
Format settings, CABAC : Yes
Format settings, ReFrames : 3 frames
Format settings, GOP : M=4, N=33
Codec ID : avc1
Codec ID/Info : Advanced Video Coding
Duration : 39mn 35s
Bit rate : 2 975 Kbps
Width : 720 pixels
Height : 576 pixels
Display aspect ratio : 4:3
Frame rate mode : Constant
Frame rate : 25.000 fps
Standard : PAL
Color space : YUV
Chroma subsampling : 4:2:0
Bit depth : 8 bits
Scan type : Interlaced
Scan order : Bottom Field First
Bits/(Pixel*Frame) : 0.287
Stream size : 842 MiB (94%)
Language : English
Encoded date : UTC 2014-04-07 01:58:24
Tagged date : UTC 2014-04-07 01:58:24

Audio
ID : 2
Format :
Format/Info : Advanced Audio Codec
Format profile : LC
Codec ID : 40
Duration : 39mn 35s
Source duration : 39mn 35s
Bit rate mode : Variable
Bit rate : 192 Kbps
Maximum bit rate : 306 Kbps
Channel(s) : 2 channels
Channel positions : Front: L R
Sampling rate : 48.0 KHz
Compression mode : Lossy
Stream size : 53.6 MiB (6%)
Source stream size : 53.6 MiB
Language : English
Encoded date : UTC 2014-04-07 01:58:24
Tagged date : UTC 2014-04-07 01:58:24

General
Complete name : /mnt/disk_d/Video/Майдан - своими глазами/Майдан - своими глазами. Первая серия.mp4
Format : MPEG-4
Format profile : Base Media / Version 2
Codec ID : mp42
File size : 935 MiB
Duration : 41mn 14s
Overall bit rate mode : Variable
Overall bit rate : 3 169 Kbps
Encoded date : UTC 2014-04-05 14:51:17
Tagged date : UTC 2014-04-05 14:51:17
©TIM : 00:00:00:00
©TSC : 25
©TSZ : 1

Video
ID : 1
Format : AVC
Format/Info : Advanced Video Codec
Format profile : [email protected]
Format settings, CABAC : Yes
Format settings, ReFrames : 3 frames
Format settings, GOP : M=4, N=33
Codec ID : avc1
Codec ID/Info : Advanced Video Coding
Duration : 41mn 14s
Bit rate : 2 975 Kbps
Width : 720 pixels
Height : 576 pixels
Display aspect ratio : 4:3
Frame rate mode : Constant
Frame rate : 25.000 fps
Standard : PAL
Color space : YUV
Chroma subsampling : 4:2:0
Bit depth : 8 bits
Scan type : Interlaced
Scan order : Bottom Field First
Bits/(Pixel*Frame) : 0.287
Stream size : 878 MiB (94%)
Language : English
Encoded date : UTC 2014-04-05 14:51:17
Tagged date : UTC 2014-04-05 14:51:17

Audio
ID : 2
Format :
Format/Info : Advanced Audio Codec
Format profile : LC
Codec ID : 40
Duration : 41mn 14s
Source duration : 41mn 14s
Bit rate mode : Variable
Bit rate : 192 Kbps
Maximum bit rate : 298 Kbps
Channel(s) : 2 channels
Channel positions : Front: L R
Sampling rate : 48.0 KHz
Compression mode : Lossy
Stream size : 55.9 MiB (6%)
Source stream size : 55.9 MiB
Language : English
Encoded date : UTC 2014-04-05 14:51:17
Tagged date : UTC 2014-04-05 14:51:17

General
Complete name : /mnt/disk_d/Video/Майдан - своими глазами/Майдан - своими глазами. Пятая серия.mp4
Format : MPEG-4
Format profile : Base Media / Version 2
Codec ID : mp42
File size : 1 017 MiB
Duration : 46mn 56s
Overall bit rate mode : Variable
Overall bit rate : 3 030 Kbps
Encoded date : UTC 2014-05-31 02:52:40
Tagged date : UTC 2014-05-31 02:52:40
©TIM : 03:45:53:20
©TSC : 30000
©TSZ : 1001

Video
ID : 1
Format : AVC
Format/Info : Advanced Video Codec
Format profile : [email protected]
Format settings, CABAC : Yes
Format settings, ReFrames : 3 frames
Format settings, GOP : M=4, N=33
Codec ID : avc1
Codec ID/Info : Advanced Video Coding
Duration : 46mn 56s
Source duration : 46mn 56s
Bit rate : 2 836 Kbps
Width : 720 pixels
Height : 480 pixels
Display aspect ratio : 4:3
Frame rate mode : Variable
Frame rate : 29.970 fps
Minimum frame rate : 14.985 fps
Maximum frame rate : 29.970 fps
Standard : NTSC
Color space : YUV
Chroma subsampling : 4:2:0
Bit depth : 8 bits
Scan type : Interlaced
Scan order : Bottom Field First
Bits/(Pixel*Frame) : 0.274
Stream size : 952 MiB (94%)
Source stream size : 952 MiB
Language : English
Encoded date : UTC 2014-05-31 02:52:40
Tagged date : UTC 2014-05-31 02:52:40

Audio
ID : 2
Format :
Format/Info : Advanced Audio Codec
Format profile : LC
Codec ID : 40
Duration : 46mn 56s
Source duration : 46mn 56s
Bit rate mode : Variable
Bit rate : 192 Kbps
Maximum bit rate : 306 Kbps
Channel(s) : 2 channels
Channel positions : Front: L R
Sampling rate : 48.0 KHz
Compression mode : Lossy
Stream size : 63.6 MiB (6%)
Source stream size : 63.6 MiB
Language : English
Encoded date : UTC 2014-05-31 02:52:40
Tagged date : UTC 2014-05-31 02:52:40

General
Complete name : /mnt/disk_d/Video/Майдан - своими глазами/Майдан - своими глазами. Третья серия.mp4
Format : MPEG-4
Format profile : Base Media / Version 2
Codec ID : mp42
File size : 1.02 GiB
Duration : 45mn 54s
Overall bit rate mode : Variable
Overall bit rate : 3 173 Kbps
Encoded date : UTC 2014-04-25 19:26:35
Tagged date : UTC 2014-04-25 19:26:35
©TIM : 02:00:00:15
©TSC : 25
©TSZ : 1

Video
ID : 1
Format : AVC
Format/Info : Advanced Video Codec
Format profile : [email protected]
Format settings, CABAC : Yes
Format settings, ReFrames : 3 frames
Format settings, GOP : M=4, N=33
Codec ID : avc1
Codec ID/Info : Advanced Video Coding
Duration : 45mn 54s
Bit rate : 2 979 Kbps
Width : 720 pixels
Height : 576 pixels
Display aspect ratio : 4:3
Frame rate mode : Constant
Frame rate : 25.000 fps
Standard : PAL
Color space : YUV
Chroma subsampling : 4:2:0
Bit depth : 8 bits
Scan type : Interlaced
Scan order : Bottom Field First
Bits/(Pixel*Frame) : 0.287
Stream size : 978 MiB (94%)
Language : English
Encoded date : UTC 2014-04-25 19:26:35
Tagged date : UTC 2014-04-25 19:26:35

Audio
ID : 2
Format :
Format/Info : Advanced Audio Codec
Format profile : LC
Codec ID : 40
Duration : 45mn 54s
Source duration : 45mn 55s
Bit rate mode : Variable
Bit rate : 192 Kbps
Maximum bit rate : 298 Kbps
Channel(s) : 2 channels
Channel positions : Front: L R
Sampling rate : 48.0 KHz
Compression mode : Lossy
Stream size : 62.2 MiB (6%)
Source stream size : 62.2 MiB
Language : English
Encoded date : UTC 2014-04-25 19:26:35
Tagged date : UTC 2014-04-25 19:26:35

General
Complete name : /mnt/disk_d/Video/Майдан - своими глазами/Майдан - своими глазами. Четвертая серия.mp4
Format : MPEG-4
Format profile : Base Media / Version 2
Codec ID : mp42
File size : 901 MiB
Duration : 39mn 55s
Overall bit rate mode : Variable
Overall bit rate : 3 157 Kbps
Encoded date : UTC 2014-05-30 02:15:24
Tagged date : UTC 2014-05-30 02:15:24
©TIM : 02:58:59:22
©TSC : 30000
©TSZ : 1001

Video
ID : 1
Format : AVC
Format/Info : Advanced Video Codec
Format profile : [email protected]
Format settings, CABAC : Yes
Format settings, ReFrames : 3 frames
Format settings, GOP : M=4, N=33
Codec ID : avc1
Codec ID/Info : Advanced Video Coding
Duration : 39mn 55s
Source duration : 39mn 55s
Bit rate : 2 963 Kbps
Width : 720 pixels
Height : 480 pixels
Display aspect ratio : 4:3
Frame rate mode : Variable
Frame rate : 29.970 fps
Minimum frame rate : 14.985 fps
Maximum frame rate : 29.970 fps
Standard : NTSC
Color space : YUV
Chroma subsampling : 4:2:0
Bit depth : 8 bits
Scan type : Interlaced
Scan order : Bottom Field First
Bits/(Pixel*Frame) : 0.286
Stream size : 846 MiB (94%)
Source stream size : 846 MiB
Language : English
Encoded date : UTC 2014-05-30 02:15:24
Tagged date : UTC 2014-05-30 02:15:24

Audio
ID : 2
Format :
Format/Info : Advanced Audio Codec
Format profile : LC
Codec ID : 40
Duration : 39mn 55s
Source duration : 39mn 55s
Bit rate mode : Variable
Bit rate : 192 Kbps
Maximum bit rate : 297 Kbps
Channel(s) : 2 channels
Channel positions : Front: L R
Sampling rate : 48.0 KHz
Compression mode : Lossy
Stream size : 54.1 MiB (6%)
Source stream size : 54.1 MiB
Language : English
Encoded date : UTC 2014-05-30 02:15:24
Tagged date : UTC 2014-05-30 02:15:24

General
Complete name : /mnt/disk_d/Video/Майдан - своими глазами/Майдан - своими глазами. Шестая серия.mp4
Format : MPEG-4
Format profile : Base Media / Version 2
Codec ID : mp42
File size : 599 MiB
Duration : 29mn 8s
Overall bit rate mode : Variable
Overall bit rate : 2 874 Kbps
Encoded date : UTC 2014-06-05 13:23:34
Tagged date : UTC 2014-06-05 13:23:34
©TIM : 04:39:44:14
©TSC : 30000
©TSZ : 1001

Video
ID : 1
Format : AVC
Format/Info : Advanced Video Codec
Format profile : [email protected]
Format settings, CABAC : Yes
Format settings, ReFrames : 3 frames
Format settings, GOP : M=4, N=33
Codec ID : avc1
Codec ID/Info : Advanced Video Coding
Duration : 29mn 8s
Bit rate : 2 680 Kbps
Width : 720 pixels
Height : 480 pixels
Display aspect ratio : 4:3
Frame rate mode : Constant
Frame rate : 29.970 fps
Standard : NTSC
Color space : YUV
Chroma subsampling : 4:2:0
Bit depth : 8 bits
Scan type : Interlaced
Scan order : Bottom Field First
Bits/(Pixel*Frame) : 0.259
Stream size : 559 MiB (93%)
Language : English
Encoded date : UTC 2014-06-05 13:23:34
Tagged date : UTC 2014-06-05 13:23:34

Audio
ID : 2
Format :
Format/Info : Advanced Audio Codec
Format profile : LC
Codec ID : 40
Duration : 29mn 8s
Source duration : 29mn 8s
Bit rate mode : Variable
Bit rate : 192 Kbps
Maximum bit rate : 296 Kbps
Channel(s) : 2 channels
Channel positions : Front: L R
Sampling rate : 48.0 KHz
Compression mode : Lossy
Stream size : 39.5 MiB (7%)
Source stream size : 39.5 MiB
Language : English
Encoded date : UTC 2014-06-05 13:23:34
Tagged date : UTC 2014-06-05 13:23:34
Скріншоти





Реліз від:
Особиста оцінка: 10 - без зайвих вагань рекомендую всім!

Шановне панство! Режисер В'ячеслав Сікора, якай зняв цю документальну серію, збирає однодумців, меценатів, акторів та інших небайдужих людей для втілення свого проекту історичного народного фільму "Легенда про Машеке". Якщо комусь цікаво - посилання.


Авторський реліз (завантажувати можна без реєстрації)
 Трекер:    Зареєстрований   

Завантажити / скачати торрент



відео для новачків



 Зареєстрований:   2014-06-12 23:18
 Розмір:   5.27 GB 
 Оцінка:   9.4/10 (Голосів: 17)
   
Drool 
VIP


З нами з: 17.04.10
Востаннє: 12.11.19
Повідомлень: 1521

2014-06-12 16:46  
Увага! Роздача оформлена за попередньою домовленістю з самим режисером-автором цієї документальної серії.
AngryBirdsUA 
Свій


З нами з: 24.02.10
Востаннє: 11.11.19
Повідомлень: 3147

2014-06-12 17:19  
Цитата:
OriginalRip

немає такого.
Цитата:
Аудіо # 1:

Цитата:
Аудіо # 2:

На скільки я бачу доріжка там одна де розмовляють українською та російською.
тому зробіть так : мова: українська,російська
Скріншоти має бути як мінімум три а є два і то не те розширення.

Ну і Медіаінфо зробіть хоча би англійською.

Drool 
VIP


З нами з: 17.04.10
Востаннє: 12.11.19
Повідомлень: 1521

2014-06-12 18:19  
Vasua95 написано:
1. немає такого.
2. Ну і Медіаінфо зробіть хоча би англійською.

1. Я знаю, але я не знав як назвати цей варіант. Це відео безпосередньо з монтажного столку самого режисера В'ячеслава Сікори. Тобто це відео ще ніколи не існувало на цифровому носії і ніде не транслювалось.
2. Info сформовано на комп'ютері режисера В'ячеслава Сікори, який проживає в Москві Wink (1)

Скріншоти будуть правильні та більше (як мінімум по одному з кожної серії), коли сам докачаю Wink (1) Скріншоти робив також режисер В'ячеслав Сікора.

P.S. Також буду вдячний (впевнений, що і автор також), якщо хтось зробить постер.

Drool 
VIP


З нами з: 17.04.10
Востаннє: 12.11.19
Повідомлень: 1521

2014-06-12 22:25  
Увага, з технічних причин торрент-файл довелось перегенерувати, перекачайте будь-ласка. Файли ідентичні, треба лише перехешувати. Роздає сам режисер! За що йому низький уклін!
Збройник 
Новенький


З нами з: 10.12.13
Востаннє: 02.11.19
Повідомлень: 7

2014-06-12 23:12  
Я можу помилятись, тож завчасно прошу пробачення. Мені здається. "CAMRip" не зовсім доречний у цьому випадку, адже це позначення використовується до "екранок", тобто до релізів, які перезняті з екрану, зазвичай, кінотеатру. Як щодо якості "INTERNAL", тобто неофіційний реліз. Я, власне, маю на увазі, що цикл ніким не виданий. В будь якому випадку, ще раз прошу пробачення і красно дякую, подивлюсь, як буде вільний час.
Drool 
VIP


З нами з: 17.04.10
Востаннє: 12.11.19
Повідомлень: 1521

2014-06-12 23:22  
Я також вважаю, що CAMRip взагалі не піходить. Просто ще не було, здається, такого випадку, коли реліз подано прямо з монтажного столу режисера. Я не знаю, як назвати таке. CAMRip було запропоновано модераторами. Початково було OriginalRip. Я б же розглянув варіант RAWRip чи щось таке.
ostipko 
Відео Гуртом - підтримка та поширення
Відео Гуртом - підтримка та поширення


З нами з: 23.02.12
Востаннє: 20.01.19
Повідомлень: 647

2014-06-13 10:24  
Drool
З усією повагою до Вас та режисера, це не є торент-толока Вячеслава Сікори, тому оформіть свій медіаінфо і скріншоти, а постер я зроблю.

Drool 
VIP


З нами з: 17.04.10
Востаннє: 12.11.19
Повідомлень: 1521

2014-06-13 14:31  
ostipko написано:
тому оформіть свій медіаінфо і скріншоти, а постер я зроблю.

Як тільки докачаю. Сікора сьогодні поїхав на нові зйомки, але обіцяв при кожній нагоді підтримувати роздачу.

ostipko 
Відео Гуртом - підтримка та поширення
Відео Гуртом - підтримка та поширення


З нами з: 23.02.12
Востаннє: 20.01.19
Повідомлень: 647

2014-06-13 15:22  
Drool
Ось приклад постеру. Якщо не влаштує - перероблю на якийсь інший варіант.
Постер тут

Drool 
VIP


З нами з: 17.04.10
Востаннє: 12.11.19
Повідомлень: 1521

2014-06-22 22:11  
ostipko написано:
Ось приклад постеру. Якщо не влаштує - перероблю на якийсь інший варіант.

Величезне дякую. Режисеру нарешті зробили власний постер. Замінено.

Ваш часовий пояс: GMT + 2 Години

Нова тема   Відповісти