Втрачений горішок (Льодовиковий період) / Gone Nutty (2002) [Ice Age] 1080p Ukr/Eng

Нові коментарі

Нова тема   Відповісти
Автор Повідомлення
Ukr Voice Team 
Відео Гуртом - озвучення
Відео Гуртом - озвучення


З нами з: 31.12.13
Востаннє: 11.08.15
Повідомлень: 60

2014-06-11 18:41  
Втрачений горішок / Gone Nutty (2002) 1080p Ukr/Eng

Втрачений горішок (Льодовиковий період) / Gone Nutty (2002) [Ice Age] 1080p Ukr/Eng


Жанр: комедія, дитячий, сімейний, пригодницький
Країна: США



Режисер: Карлос Салдана
Сюжет:
Знаменита білка із "Льодовикового періоду" вишукує горішки і потрапляє в пригоди.


Тривалість: 00:04:46
Якість:
Відео:
кодек:
розмір кадру: 1920 х 1080
бітрейт: 10,7 Мб/с

Аудіо # 1:
мова: українська
переклад: дубльований | UkrVoiceTeam
кодек: 2.0
бітрейт: 192 кб/с

Аудіо # 2:
мова: англійська
переклад: оригінал
кодек: 5.1
бітрейт: 448 кб/с
Скріншоти


Info
General
Unique ID : 247480853469885370493358634239460826911 (0xBA2F14217D6DDD84933A69AFCB2EDF1F)
Complete name : D:\Завантаження\Озвучене\Gone Nutty (2002) 1080p (Ukr-Eng) UkrVoiceTeam.
Format :
Format version : Version 4 / Version 2
File size : 387 MiB
Duration : 4mn 46s
Overall bit rate : 11.3 Mbps
Movie name : Потерянный орех / Gone Nutty (2002) 1080p
Encoded date : UTC 2014-06-11 16:30:39
Writing application : v6.6.0 ('The Edge Of The In Between') built on Dec 1 2013 17:55:00
Writing library : libebml v1.3.0 + v1.4.1

Video
ID : 1
Format : AVC
Format/Info : Advanced Video Codec
Format profile : [email protected]
Format settings, CABAC : Yes
Format settings, ReFrames : 6 frames
Codec ID : V_MPEG4/ISO/AVC
Duration : 4mn 46s
Bit rate : 10.7 Mbps
Width : 1 920 pixels
Height : 1 080 pixels
Display aspect ratio : 16:9
Frame rate mode : Constant
Frame rate : 23.976 fps
Color space : YUV
Chroma subsampling : 4:2:0
Bit depth : 8 bits
Scan type : Progressive
Bits/(Pixel*Frame) : 0.215
Stream size : 357 MiB (92%)
Title : 1080p , 1920x1080, 16:9, 23.976 fps, , ~10 679 Kbps
Writing library : core 133 r2334 a3ac64b
Encoding settings : cabac=1 / ref=6 / deblock=1:-3:-3 / analyse=0x3:0x133 / me=umh / subme=10 / psy=1 / psy_rd=1.00:0.00 / mixed_ref=1 / me_range=32 / chroma_me=1 / trellis=2 / 8x8dct=1 / cqm=0 / deadzone=21,11 / fast_pskip=0 / chroma_qp_offset=-2 / threads=9 / lookahead_threads=1 / sliced_threads=0 / nr=0 / decimate=0 / interlaced=0 / bluray_compat=0 / constrained_intra=0 / bframes=6 / b_pyramid=2 / b_adapt=2 / b_bias=0 / direct=3 / weightb=1 / open_gop=0 / weightp=2 / keyint=250 / keyint_min=23 / scenecut=40 / intra_refresh=0 / rc_lookahead=60 / rc=2pass / mbtree=1 / bitrate=10695 / ratetol=1.0 / qcomp=0.60 / qpmin=0 / qpmax=69 / qpstep=4 / cplxblur=20.0 / qblur=0.5 / ip_ratio=1.40 / aq=1:1.00
Language : English
Default : Yes
Forced : No
Color primaries : BT.709
Transfer characteristics : BT.709
Matrix coefficients : BT.709

Audio #1
ID : 2
Format : AC-3
Format/Info : Audio Coding 3
Mode extension : CM (complete main)
Format settings, Endianness : Big
Codec ID : A_AC3
Duration : 4mn 46s
Bit rate mode : Constant
Bit rate : 192 Kbps
Channel(s) : 2 channels
Channel positions : Front: L R
Sampling rate : 48.0 KHz
Bit depth : 16 bits
Compression mode : Lossy
Stream size : 6.56 MiB (2%)
Language : Ukrainian
Default : Yes
Forced : No

Audio #2
ID : 3
Format : AC-3
Format/Info : Audio Coding 3
Mode extension : CM (complete main)
Format settings, Endianness : Big
Codec ID : A_AC3
Duration : 4mn 46s
Bit rate mode : Constant
Bit rate : 448 Kbps
Channel(s) : 6 channels
Channel positions : Front: L C R, Side: L R, LFE
Sampling rate : 48.0 KHz
Bit depth : 16 bits
Compression mode : Lossy
Stream size : 15.3 MiB (4%)
Title : , 6 ch, 448 Kbps - перевод не нужен
Language : English
Default : No
Forced : No
Джерело: UkrVoiceTeam &
Особиста оцінка: 10 - без зайвих вагань рекомендую всім!


Авторський реліз (завантажувати можна без реєстрації)
 Трекер:    Зареєстрований   

Завантажити / скачати фільм українською



відео для новачків



 Зареєстрований:   2014-06-11 18:41
 Розмір:   387 MB 
 Оцінка фільму:   9.7/10 (Голосів: 12)
 Gone Nutty (2002) 1080p BDRip (Ukr-Eng) UkrVoiceTeam
   
giftdriver 
Забанено
Забанено


З нами з: 20.02.15
Востаннє: 20.02.15
Повідомлень: 2

2015-02-20 05:45  
I'm reading a post that felt good. Feel into Bangkok Post to learn really good.


бот, видано igor911
Ваш часовий пояс: GMT + 2 Години

Нова тема   Відповісти