Джастін та лицарі доблесті / Justin and the Knights of Valour (2013) 720p-mini

Нові коментарі

Нова тема   Відповісти
Автор Повідомлення
Drool 
VIP


З нами з: 17.04.10
Востаннє: 20.08.17
Повідомлень: 1373

2014-06-05 16:14  
Джастін та лицарі доблесті / Justin and the Knights of Valour (2013) 720p-mini

Жанр: анімація, пригодницький
Країна: Іспанія



Кінокомпанія: Aliwood Mediterráneo Producciones, Kandor Graphics, Out Of The Box Feature
Режисер: Мануель Сіцілія
Актори: Фредді Гаймор, Сірша Ронан, Марк Стронґ, Девід Волліамс, Антоніо Бандерас, Альфред Моліна, Джулі Волтерс, Олівія Вільямс, Чарльз Денс, Руперт Еверетт

Сюжет:
Дія мультфільму розгортається в магічному світі, про який мріє кожна дитина. Джастін мріє стати лицарем, але на його шляху з'являється багато перешкод бюрократичного характеру. Навіть батько Джастіна проти лицарства і хоче, щоб син став придворним службовцем. Тоді хлопчик, збурений бажанням стати справжнім доблесним лицарем, втікає з дому у пошуках пригод. По дорозі він знайомиться з прекрасною дівчиною - Талією, яка надихає його на нові подвиги, і зустрічає мудрих лицарів - наставників, які навчають його лицарській майстерності. Але чи вистачить Джастіну отриманих знань для того, щоб впоратися із загрозою, яка нависла над його Королівством? Чи зуміє хлопець подолати всі перешкоди і досягти своєї мрії?


Тривалість: 01:36:11
Якість: 720p-mini (джерело: Blu-Ray GER Transfer)
Відео:
кодек:
розмір кадру: 1280x536
бітрейт: 2166 кб/с

Аудіо:
мова: українська
переклад: професійний дубльований
кодек: 5.1
бітрейт: 448 кб/с
Info
General
Unique ID : 307777775719700281275528782561618632900 (0xE78BD7EC2DAE0BFB70B474A3EEBF20C4)
Complete name : /mnt/disk_d/Video/Justin.and.the.Knights.of.Valour.2013.Ukr.Dub..720p-mini.UAGet.
Format :
Format version : Version 2
File size : 1.76 GiB
Duration : 1h 36mn
Overall bit rate : 2 619 Kbps
Writing application : HandBrake rev0
Writing library : libmkv 0.6.5
TITLE : Джастін та лицарі доблесті (2013) 720p-mini -=UAGet=-
ARTIST : Фредді Гаймор, Сірша Ронан, Марк Стронґ, Девід Волліамс, Антоніо Бандерас та ін.
DIRECTOR : Мануель Сіцілія
DATE_RELEASED : 2013
GENRE : анімація, пригодницький
SYNOPSIS : Дія мультфільму розгортається в магічному світі, про який мріє кожна дитина. Джастін мріє стати лицарем, але на його шляху з'являється багато перешкод бюрократичного характеру. Навіть батько Джастіна проти лицарства і хоче, щоб син став придворним службовцем. Тоді хлопчик, збурений бажанням стати справжнім доблесним лицарем, втікає з дому у пошуках пригод. По дорозі він знайомиться з прекрасною дівчиною - Талією, яка надихає його на нові подвиги, і зустрічає мудрих лицарів - наставників, які навчають його лицарській майстерності. Але чи вистачить Джастіну отриманих знань для того, щоб впоратися із загрозою, яка нависла над його Королівством? Чи зуміє хлопець подолати всі перешкоди і досягти своєї мрії?

Video
ID : 1
Format : AVC
Format/Info : Advanced Video Codec
Format profile : [email protected]
Format settings, CABAC : Yes
Format settings, ReFrames : 7 frames
Codec ID : V_MPEG4/ISO/AVC
Duration : 1h 36mn
Bit rate : 2 166 Kbps
Width : 1 280 pixels
Height : 536 pixels
Display aspect ratio : 2.40:1
Frame rate : 23.976 fps
Color space : YUV
Chroma subsampling : 4:2:0
Bit depth : 8 bits
Scan type : Progressive
Bits/(Pixel*Frame) : 0.132
Stream size : 1.42 GiB (81%)
Writing library : core 142 r2389 956c8d8
Encoding settings : cabac=1 / ref=8 / deblock=1:-3:-3 / analyse=0x3:0x133 / me=umh / subme=11 / psy=1 / psy_rd=1,10:0,15 / mixed_ref=1 / me_range=32 / chroma_me=1 / trellis=2 / 8x8dct=1 / cqm=0 / deadzone=21,11 / fast_pskip=0 / chroma_qp_offset=-3 / threads=6 / lookahead_threads=1 / sliced_threads=0 / nr=0 / decimate=1 / interlaced=0 / bluray_compat=0 / constrained_intra=0 / bframes=8 / b_pyramid=1 / b_adapt=2 / b_bias=0 / direct=3 / weightb=1 / open_gop=0 / weightp=2 / keyint=240 / keyint_min=24 / scenecut=40 / intra_refresh=0 / rc=2pass / mbtree=0 / bitrate=2166 / ratetol=1,0 / qcomp=1,00 / qpmin=0 / qpmax=69 / qpstep=4 / cplxblur=20,0 / qblur=0,5 / ip_ratio=1,40 / pb_ratio=1,30 / aq=2:0,60
Language : English
Default : Yes
Forced : No
Color primaries : BT.709-5, BT.1361, IEC 61966-2-4, SMPTE RP177
Transfer characteristics : BT.709-5, BT.1361
Matrix coefficients : BT.709-5, BT.1361, IEC 61966-2-4 709, SMPTE RP177

Audio
ID : 2
Format : AC-3
Format/Info : Audio Coding 3
Mode extension : CM (complete main)
Codec ID : A_AC3
Duration : 1h 36mn
Bit rate mode : Constant
Bit rate : 448 Kbps
Channel(s) : 6 channels
Channel positions : Front: L C R, Side: L R, LFE
Sampling rate : 48.0 KHz
Bit depth : 16 bits
Compression mode : Lossy
Stream size : 308 MiB (17%)
Language : Ukrainian
Default : Yes
Forced : No
Скріншоти




Реліз від:
Особиста оцінка: 8 - мені сподобалося


 Трекер:    Зареєстрований   

Завантажити / скачати мультфільм українською



відео для новачків



 Зареєстрований:   2014-06-06 16:17
 Розмір:   1.76 GB 
 Оцінка мультфільму:   9.1/10 (Голосів: 11)
   
bot 
робот


З нами з: 30.09.07
Востаннє: 26.05.05
Повідомлень: 17368

2014-06-05 16:15  
Тему перенесено з Мультфільми в HD до форуму Анонси релізів


Drool

Drool 
VIP


З нами з: 17.04.10
Востаннє: 20.08.17
Повідомлень: 1373

2014-06-05 16:17  
Орієнтовний розмір ~1.8 гектари.
bot 
робот


З нами з: 30.09.07
Востаннє: 26.05.05
Повідомлень: 17368

2014-06-06 16:17  
Тему перенесено з Анонси релізів до форуму Мультфільми в HD


Drool

Ваш часовий пояс: GMT + 2 Години

Нова тема   Відповісти