Межа пустоти: Сад грішників. Незникаюче відчуття болю / Gekijouban Kara no Kyoukai: Dai San Shou - Tsuukaku Zanryuu / Boundary of Emptiness: Remaining Sense of Pain (2008) 1080p Ukr/Jap

Нові коментарі

Нова тема   Відповісти
Останній раз роздавалося Rombar2009 (2015-02-08)
Автор Повідомлення
Patlati Продакшнз 
Частий відвідувач


З нами з: 09.01.12
Востаннє: 16.03.17
Повідомлень: 35

2014-06-05 11:22  
Межа пустоти: Сад грішників. Незникаюче відчуття болю / 劇場版 空の境界/第三章 痛覚残留 / Gekijouban Kara no Kyoukai: Dai San Shou - Tsuukaku Zanryuu / Boundary of Emptiness: Remaining Sense of Pain (2008) 1080p Ukr/Jap

Межа пустоти: Сад грішників. Незникаюче відчуття болю / Gekijouban Kara no Kyoukai: Dai San Shou - Tsuukaku Zanryuu / Boundary of Emptiness: Remaining Sense of Pain (2008) 1080p Ukr/Jap


Жанр: трилер, містика, жахи
Країна: Японія



8.49 (4892 голосів)

Кінокомпанія: Ufotable (NASU/Kodansha•Aniplex•Notes•ufotable)
Режисер: Обунай Мацуру
Ролі озвучують: Сакамото Маайа, Сузумура Кенічі, Хонда Такако, Ното Маміко

Сюжет:
Липень 1998 року: Мікія допомагає дівчині на ім'я Фуджіно, а наступного дня по телебаченню повідомляють про криваве вбивство у покинутому барі. Що пов'язує милу дівчину з безжалісним нелюдом? Шікі та Мікія мають знайти та знешкодити вбивцю.
Серія анімаційних фільмів "Межа пустоти" створена на основі роману Кіноко Насу.


Тривалість: 57:24
Відео:
кодек:
розмір кадру: 1920x1080
бітрейт: 12,2 мб/с

Аудіо # 1:
мова: українська
переклад: багатоголосий закадровий (Patlati Продакшнз)
кодек: 5.1
бітрейт: 1509 кб/с

Аудіо # 2:
мова: японська
переклад: оригінал
кодек: 5.1
бітрейт: 1509 кб/с

Субтитри:
мова: англійська
тип: програмні (м'які)
формат: *.ass
Info

General
Unique ID : 225798889990889181990720117819808959003 (0xA9DF48CC19096C50824D2070C2FC4A1B)
Format :
Format version : Version 2
File size : 6.24 GiB
Duration : 57mn 24s
Overall bit rate : 15.6 Mbps
Encoded date : UTC 2014-05-28 12:04:23
Writing application : mkvmerge v3.2.0 ('Beginnings') built on Feb 12 2010 16:46:17
Writing library : libebml v0.7.9 + libmatroska v0.8.1
Attachment : Yes / Yes / Yes / Yes / Yes / Yes / Yes / Yes / Yes / Yes / Yes / Yes / Yes / Yes / Yes
Video #1
ID : 1
Format : AVC
Format/Info : Advanced Video Codec
Format profile : [email protected]
Format settings, CABAC : Yes
Format settings, ReFrames : 4 frames
Codec ID : V_MPEG4/ISO/AVC
Duration : 57mn 24s
Bit rate : 12.2 Mbps
Width : 1 920 pixels
Height : 1 080 pixels
Display aspect ratio : 16:9
Frame rate mode : Constant
Frame rate : 23.976 fps
Color space : YUV
Chroma subsampling : 4:2:0
Bit depth : 8 bits
Scan type : Progressive
Bits/(Pixel*Frame) : 0.246
Stream size : 4.91 GiB (79%)
Writing library : core 112 r1867 22bfd31
Encoding settings : cabac=1 / ref=4 / deblock=1:0:0 / analyse=0x3:0x133 / me=umh / subme=9 / psy=1 / psy_rd=0.70:0.00 / mixed_ref=1 / me_range=32 / chroma_me=1 / trellis=2 / 8x8dct=1 / cqm=0 / deadzone=21,11 / fast_pskip=0 / chroma_qp_offset=-3 / threads=12 / sliced_threads=0 / nr=0 / decimate=0 / interlaced=0 / constrained_intra=0 / bframes=12 / b_pyramid=0 / b_adapt=2 / b_bias=0 / direct=1 / weightb=1 / open_gop=0 / weightp=2 / keyint=250 / keyint_min=23 / scenecut=40 / intra_refresh=0 / rc_lookahead=40 / rc=crf / mbtree=0 / crf=16.2 / qcomp=0.73 / qpmin=9 / qpmax=32 / qpstep=4 / vbv_maxrate=40000 / vbv_bufsize=62500 / crf_max=0.0 / nal_hrd=none / ip_ratio=1.40 / pb_ratio=1.30 / aq=1:1.00
Language : English
Default : No
Forced : No
Audio #2
ID : 2
Format :
Format/Info : Digital Theater Systems
Mode : 16
Format settings, Endianness : Big
Codec ID : A_DTS
Duration : 57mn 24s
Bit rate mode : Constant
Bit rate : 1 509 Kbps
Channel(s) : 6 channels
Channel positions : Front: L C R, Side: L R, LFE
Sampling rate : 48.0 KHz
Bit depth : 24 bits
Compression mode : Lossy
Stream size : 620 MiB (10%)
Language : Ukrainian
Default : Yes
Forced : No
Audio #3
ID : 3
Format :
Format/Info : Digital Theater Systems
Mode : 16
Format settings, Endianness : Big
Codec ID : A_DTS
Duration : 57mn 24s
Bit rate mode : Constant
Bit rate : 1 509 Kbps
Channel(s) : 6 channels
Channel positions : Front: L C R, Side: L R, LFE
Sampling rate : 48.0 KHz
Bit depth : 24 bits
Compression mode : Lossy
Stream size : 620 MiB (10%)
Language : Japanese
Default : No
Forced : No
Text #4
ID : 4
Format : ASS
Codec ID : S_TEXT/ASS
Codec ID/Info : Advanced Sub Station Alpha
Compression mode : Lossless
Title : Pretentious
Language : English
Default : No
Forced : No
Скріншоти






Джерело: Patlati Продакшнз
Ролі озвучили: Oni, Ito, Elvira, Zirko, Sancho, Наталка Полтавка and guest superstars
Особиста оцінка: 10 - без зайвих вагань рекомендую всім!


Авторський реліз (завантажувати можна без реєстрації)
 Трекер:    Зареєстрований   

Завантажити / скачати аніме українською



відео для новачків



 Зареєстрований:   2014-06-05 11:23
 Розмір:   6.24 GB 
 Оцінка аніме:   9/10 (Голосів: 1)
   
Ваш часовий пояс: GMT + 2 Години

Нова тема   Відповісти