Підводна братва / Shark Tale (2004) 720p 3хUkr/Eng | Sub Eng

Нові коментарі

Нова тема   Відповісти
Автор Повідомлення
Anonymous 







2014-06-02 16:25  
Підводна братва / Shark Tale (2004) 720p 3хUkr/Eng | Sub Eng



Жанр: анімація, комедія, пригодницький, сімейний
Країна: США



Кінокомпанія: DreamWorks Animation, DreamWorks SKG, Pacific Data Images (PDI)
Режисер: Бібо Бержерон / Bibo Bergeron, Вікі Дженсон / Vicky Jenson, Роб Латтерман / Rob Letterman
В оригіналі ролі озвучували: Вілл Сміт / Will Smith, Роберт Де Ніро / Robert De Niro, Рене Зелвеґер / Renée Zellweger, Джек Блeк / Jack Black, Анджеліна Джолі / Angelina Jolie, Мартін Скорсезе / Martin Scorsese, Зіггі Марлі / Ziggy Marley та інші

Сюжет:
Підводний світ сколихнула новина про вбивство сина ватажка банди акул. На місці злочину знаходять малька Оскара, що нічого не підозрює. Оскар завжди мріяв бути сильним та відомим і ось йому нагодився шанс скористатися чужою славою. Але незабаром Оскар розуміє, що він накоїв, коли присвоїв собі титул "Вбивця акул".


Рейтинг MPAA: PG - рекомендується присутність батьків
Вікова категорія: 12+

Тривалість: 01:29:44
Якість: 720p
Відео:
кодек:
розмір кадру: 1280 x 718
бітрейт: 4121 кбіт/с

Аудіо # 1:
мова: українська - Так Треба Продакшн, записано з Інтера 05.01.2013
переклад: багатоголосий закадровий
ролі озвучили: Роман Чупіс, Володимир Терещук, Олена Бліннікова та Валентина Сова
кодек: 2.0
бітрейт: 192 кбіт/с

Аудіо # 2:
мова: українська - Студія 1+1
переклад: двоголосий закадровий
ролі озвучили: Максим Кондратюк та Олена Узлюк
кодек: 2.0
бітрейт: 192 кбіт/с

Аудіо # 3:
мова: українська
переклад: багатоголосий закадровий
ролі озвучили: Дмитро Завадський, Володимир Терещук та Лідія Муращенко
кодек: 2.0
бітрейт: 192 кбіт/с

Аудіо # 4:
мова: англійська
переклад: оригінал
кодек: 5.1
бітрейт: 384 кбіт/с

Субтитри:
мова: англійська
тип: програмні (м'які)
формат: *.srt

Збережено оригінальні розділи
Info
Код:
General
Unique ID                                : 190461343489909532890019661725917409239 (0x8F49853D5C67FA28B62C85DC78226FD7)
Complete name                            : Shark Tale (2004) [3xUkr,Eng sub.Eng] 720p [Hurtom & HDClub].
Format                                   :
Format version                           : Version 4 / Version 2
File size                                : 3.25 GiB
Duration                                 : 1h 29mn
Overall bit rate                         : 5 184 Kbps
Movie name                               : Підводна братва / Shark Tale (2004) 720p [Hurtom & HDClub]
Encoded date                             : UTC 2014-06-02 12:37:59
Writing application                      : mkvmerge v6.9.1 ('Blue Panther') 64bit built on Apr 18 2014 18:23:38
Writing library                          : libebml v1.3.0 + libmatroska v1.4.1

Video
ID                                       : 1
Format                                   : AVC
Format/Info                              : Advanced Video Codec
Format profile                           : [email protected]
Format settings, CABAC                   : No
Format settings, ReFrames                : 2 frames
Format settings, GOP                     : N=1
Codec ID                                 : V_MPEG4/ISO/AVC
Duration                                 : 1h 29mn
Bit rate                                 : 4 121 Kbps
Width                                    : 1 280 pixels
Height                                   : 718 pixels
Display aspect ratio                     : 16:9
Frame rate mode                          : Constant
Frame rate                               : 23.976 fps
Color space                              : YUV
Chroma subsampling                       : 4:2:0
Bit depth                                : 8 bits
Scan type                                : Progressive
Bits/(Pixel*Frame)                       : 0.187
Stream size                              : 2.58 GiB (79%)
Title                                    : Підводна братва / Shark Tale / Подводная братва (2004) 720p [HDClub]
Language                                 : English
Default                                  : Yes
Forced                                   : No
Color primaries                          : BT.709
Transfer characteristics                 : BT.709
Matrix coefficients                      : BT.709

Audio #1
ID                                       : 2
Format                                   : AC-3
Format/Info                              : Audio Coding 3
Mode extension                           : CM (complete main)
Format settings, Endianness              : Big
Codec ID                                 : A_AC3
Duration                                 : 1h 29mn
Bit rate mode                            : Constant
Bit rate                                 : 192 Kbps
Channel(s)                               : 2 channels
Channel positions                        : Front: L R
Sampling rate                            : 48.0 KHz
Bit depth                                : 16 bits
Compression mode                         : Lossy
Stream size                              : 123 MiB (4%)
Title                                    : MVO [TakTrebaProduction-Inter] 2.0 192 Kbps [Hurtom-Vasua95]
Language                                 : Ukrainian
Default                                  : Yes
Forced                                   : Yes

Audio #2
ID                                       : 3
Format                                   : AC-3
Format/Info                              : Audio Coding 3
Mode extension                           : CM (complete main)
Format settings, Endianness              : Big
Codec ID                                 : A_AC3
Duration                                 : 1h 29mn
Bit rate mode                            : Constant
Bit rate                                 : 192 Kbps
Channel(s)                               : 2 channels
Channel positions                        : Front: L R
Sampling rate                            : 48.0 KHz
Bit depth                                : 16 bits
Compression mode                         : Lossy
Delay relative to video                  : 15ms
Stream size                              : 123 MiB (4%)
Title                                    : DVO [1+1] 2.0 192 kbps [Hurtom-Vasua95]
Language                                 : Ukrainian
Default                                  : No
Forced                                   : No

Audio #3
ID                                       : 4
Format                                   : AC-3
Format/Info                              : Audio Coding 3
Mode extension                           : CM (complete main)
Format settings, Endianness              : Big
Codec ID                                 : A_AC3
Duration                                 : 1h 29mn
Bit rate mode                            : Constant
Bit rate                                 : 192 Kbps
Channel(s)                               : 2 channels
Channel positions                        : Front: L R
Sampling rate                            : 48.0 KHz
Bit depth                                : 16 bits
Compression mode                         : Lossy
Delay relative to video                  : 10ms
Stream size                              : 123 MiB (4%)
Title                                    : MVO [Novyj] 2.0 192 Kbps [Hurtom-Vasua95]
Language                                 : Ukrainian
Default                                  : No
Forced                                   : No

Audio #4
ID                                       : 5
Format                                   : AC-3
Format/Info                              : Audio Coding 3
Mode extension                           : CM (complete main)
Format settings, Endianness              : Big
Codec ID                                 : A_AC3
Duration                                 : 1h 29mn
Bit rate mode                            : Constant
Bit rate                                 : 384 Kbps
Channel(s)                               : 6 channels
Channel positions                        : Front: L C R, Side: L R, LFE
Sampling rate                            : 48.0 KHz
Bit depth                                : 16 bits
Compression mode                         : Lossy
Stream size                              : 246 MiB (7%)
Title                                    : Original
Language                                 : English
Default                                  : No
Forced                                   : No

Text
ID                                       : 6
Format                                   : UTF-8
Codec ID                                 : S_TEXT/UTF8
Codec ID/Info                            : UTF-8 Plain Text
Title                                    : Eng full
Language                                 : English
Default                                  : No
Forced                                   : No

Menu
00:00:00.000                             : en:Chapter 1
00:04:12.000                             : en:Chapter 2
00:05:40.000                             : en:Chapter 3
00:08:35.000                             : en:Chapter 4
00:11:08.000                             : en:Chapter 5
00:14:54.000                             : en:Chapter 6
00:17:43.000                             : en:Chapter 7
00:20:27.000                             : en:Chapter 8
00:26:05.000                             : en:Chapter 9
00:31:13.000                             : en:Chapter 10
00:36:03.000                             : en:Chapter 11
00:40:38.000                             : en:Chapter 12
00:48:20.000                             : en:Chapter 13
00:53:40.000                             : en:Chapter 14
00:58:28.000                             : en:Chapter 15
01:04:19.000                             : en:Chapter 16
01:06:48.000                             : en:Chapter 17
01:16:37.000                             : en:Chapter 18
01:18:16.000                             : en:Chapter 19
01:21:32.000                             : en:Chapter 20




Джерела та подяки: &
ріп відео, оригінальні звук та субтитри - HDClub; українські доріжки - запис з ТБ: (1) xslim, ratbol, (2) urij546724, (3) pan_oleg; Vasua95- зведення, karvai0 - допомога; український постер - pan_oleg (всі - Гуртом).


ЗАЛИШАЙТЕСЬ ЯКОМОГА ДОВШЕ НА РОЗДАЧІ!

СКАЧАВ САМ - ДАЙ СКАЧАТИ ІНШИМ


Срібний реліз (на рейтинг впливає 50% завантаженого)
 Трекер:    Зареєстрований   

Завантажити / скачати мультфільм українською



відео для новачків



 Зареєстрований:   2014-06-02 16:25
 Розмір:   3.25 GB 
 Оцінка мультфільму:   5.4/10 (Голосів: 24)
   
Інші релізи
   Підводна братва / Shark Tale (2004) 3хUkr/Eng AngryBirdsUA  4 / 2   1.69 GB   2014-06-01 22:09 
   Підводна братва / Shark Tale (2004) 1080p 2хUkr/Eng | Sub Eng ratbol  1 / 0   8.44 GB   2012-02-24 19:51 
   Підводна братва / Shark Tale (2004) 2хUkr/Eng | Sub Eng MutuLI  1 / 0   1.92 GB   2011-04-03 00:26 
   Підводна братва / Shark tale (2004) pan_oleg  5 / 0   1.36 GB   2009-10-25 10:10 
Ваш часовий пояс: GMT + 2 Години

Нова тема   Відповісти