Спіріт - душа прерій / Spirit: Stallion of the Cimarron (2002) 1080p Ukr/Eng | Sub Eng

Нові коментарі

Нова тема   Відповісти
Автор Повідомлення
Anonymous 







2014-05-31 19:30  
Спіріт - душа прерій / Spirit: Stallion of the Cimarron (2002) 1080p Ukr/Eng | Sub Eng



Альтернативний постер



Жанр: анімація, мелодрама, комедія, пригодницький, вестерн
Країна: США

Номінації на Оскар (Кращий анімаційний фільм) та Золотий глобус (Краща пісня - "Here I Am" Браяна Адамса)

Кінокомпанія: DreamWorks Animation, DreamWorks SKG
Режисер: Келлі Асбарі / Kelly Asbury, Лорна Кук / Lorna Cook
Актори: Мет Деймон/Matt Damon, Джеймс Кромвел/James Cromwell, Даніель Студі (Daniel Studi), Чопер Бернет (Chopper Bernet та інші

Сюжет:
Дикий мустанг на ім'я Спіріт – жеребець, що живе в степах дикого Заходу. Ставши вожаком свого табуна, він захищає мустангів від чотироногих хижаків і першим приймає на себе удар, коли до них наближаються двоногі вороги – солдати армії США, що будують залізницю і воюють з місцевими індіанцями. Ціною власної свободи Спіріту вдається спасти інших від упряжі і шлей, але навіть самим досвідченим наїздникам не вдається осідлати його – надто вже він прудкий, сильний і гарячий. Тільки полоненому зовсім юному індіанцю Спіріт дається в руки, щоб разом з ним втекти подалі від нестримного наступу цивилізації.



Рейтинг MPAA: G - нема вікових обмежень
Вікова категорія: 0+


Тривалість: 01:23:28
Якість: 1080p
Відео:
кодек:
розмір кадру: 1920x820
бітрейт: 5510 кбіт/с

Аудіо # 1:
мова: українська
переклад: багатоголосий закадровий
ролі озвучили: Дмитро Завадський та інші
кодек: 5.1
бітрейт: 448 кбіт/с

Аудіо # 2:
мова: англійська
переклад: оригінал
кодек: 5.1
бітрейт: 640 кбіт/с

Аудіо # 3:
мова: англійська
переклад: коментарі
кодек: 2.0
бітрейт: 192 кбіт/с

Субтитри:
мова: англійська
тип: програмні (м'які)
формат: *.srt

Збережено оригінальні розділи, як на Blu-ray.
Info та
[info]: frame I:1345 Avg QP:12.36 size:245446
[info]: frame P:38271 Avg QP:16.47 size: 50494
[info]: frame B:80477 Avg QP:17.37 size: 14715
Код:
General
Unique ID                                : 210713891995064864896707973135699446170 (0x9E8604F94F5645099F99EAD2D1E2899A)
Complete name                            : Spirit - Stallion of the Cimarron (2002) [Ukr,Eng sub.Eng] 1080p [Hurtom & MediaClub].
Format                                   :
Format version                           : Version 4 / Version 2
File size                                : 3.96 GiB
Duration                                 : 1h 23mn
Overall bit rate                         : 6 788 Kbps
Movie name                               : Спіріт - душа прерій / Spirit: Stallion of the Cimarron (2002) 1080p [Hurtom & MediaClub]
Encoded date                             : UTC 2014-05-31 15:43:17
Writing application                      : mkvmerge v6.9.1 ('Blue Panther') 64bit built on Apr 18 2014 18:23:38
Writing library                          : libebml v1.3.0 + libmatroska v1.4.1

Video
ID                                       : 1
Format                                   : AVC
Format/Info                              : Advanced Video Codec
Format profile                           : [email protected]
Format settings, CABAC                   : Yes
Format settings, ReFrames                : 5 frames
Codec ID                                 : V_MPEG4/ISO/AVC
Duration                                 : 1h 23mn
Bit rate                                 : 5 510 Kbps
Width                                    : 1 920 pixels
Height                                   : 820 pixels
Display aspect ratio                     : 2.35:1
Frame rate mode                          : Constant
Frame rate                               : 23.976 fps
Color space                              : YUV
Chroma subsampling                       : 4:2:0
Bit depth                                : 8 bits
Scan type                                : Progressive
Bits/(Pixel*Frame)                       : 0.146
Stream size                              : 3.13 GiB (79%)
Title                                    : Спіріт - душа прерій / Spirit: Stallion of the Cimarron / Спирит: Душа прерий (2002) 1080p [MediaClub-kaspr]
Writing library                          : core 142 r2409+42 04be48a tMod [[email protected]:2:0 X86_64]
Encoding settings                        : cabac=1 / ref=5 / deblock=1:-3:-3 / analyse=0x3:0x113 / me=umh / subme=11 / psy=1 / fade_compensate=0.00 / psy_rd=1.00:0.20 / mixed_ref=1 / me_range=32 / chroma_me=1 / trellis=2 / 8x8dct=1 / cqm=0 / deadzone=21,11 / fast_pskip=0 / chroma_qp_offset=-3 / threads=12 / lookahead_threads=2 / sliced_threads=0 / nr=0 / decimate=0 / interlaced=0 / bluray_compat=0 / constrained_intra=0 / fgo=0 / bframes=8 / b_pyramid=2 / b_adapt=2 / b_bias=0 / direct=3 / weightb=1 / open_gop=0 / weightp=2 / keyint=240 / keyint_min=23 / scenecut=40 / intra_refresh=0 / rc=2pass / mbtree=0 / bitrate=5510 / ratetol=1.0 / qcomp=0.60 / qpmin=0:0:0 / qpmax=69:69:69 / qpstep=4 / cplxblur=20.0 / qblur=0.5 / ip_ratio=1.40 / pb_ratio=1.30 / aq=2:0.60 / aq-sensitivity=10.00 / aq-factor=1.00:1.00:1.00 / aq2=0 / aq3=0
Language                                 : English
Default                                  : Yes
Forced                                   : Yes

Audio #1
ID                                       : 2
Format                                   : AC-3
Format/Info                              : Audio Coding 3
Mode extension                           : CM (complete main)
Format settings, Endianness              : Big
Codec ID                                 : A_AC3
Duration                                 : 1h 23mn
Bit rate mode                            : Constant
Bit rate                                 : 448 Kbps
Channel(s)                               : 6 channels
Channel positions                        : Front: L C R, Side: L R, LFE
Sampling rate                            : 48.0 KHz
Bit depth                                : 16 bits
Compression mode                         : Lossy
Stream size                              : 268 MiB (7%)
Title                                    : MVO 5.1 448 Kbps [Hurtom-MechanicCDRR, dbdeveloper, Soyer]
Language                                 : Ukrainian
Default                                  : Yes
Forced                                   : Yes

Audio #2
ID                                       : 3
Format                                   : AC-3
Format/Info                              : Audio Coding 3
Mode extension                           : CM (complete main)
Format settings, Endianness              : Big
Codec ID                                 : A_AC3
Duration                                 : 1h 23mn
Bit rate mode                            : Constant
Bit rate                                 : 640 Kbps
Channel(s)                               : 6 channels
Channel positions                        : Front: L C R, Side: L R, LFE
Sampling rate                            : 48.0 KHz
Bit depth                                : 16 bits
Compression mode                         : Lossy
Stream size                              : 382 MiB (9%)
Title                                    : Original
Language                                 : English
Default                                  : No
Forced                                   : No

Audio #3
ID                                       : 4
Format                                   : AC-3
Format/Info                              : Audio Coding 3
Mode extension                           : CM (complete main)
Format settings, Endianness              : Big
Codec ID                                 : A_AC3
Duration                                 : 1h 23mn
Bit rate mode                            : Constant
Bit rate                                 : 192 Kbps
Channel(s)                               : 2 channels
Channel positions                        : Front: L R
Sampling rate                            : 48.0 KHz
Bit depth                                : 16 bits
Compression mode                         : Lossy
Stream size                              : 115 MiB (3%)
Title                                    : Commentary by Mireille Soria, Kelly Asbury, Lorna Cook
Language                                 : English
Default                                  : No
Forced                                   : No

Text
ID                                       : 5
Format                                   : UTF-8
Codec ID                                 : S_TEXT/UTF8
Codec ID/Info                            : UTF-8 Plain Text
Title                                    : Eng full
Language                                 : English
Default                                  : No
Forced                                   : No

Menu
00:00:00.000                             : en:Chapter 01
00:07:32.410                             : en:Chapter 02
00:11:29.855                             : en:Chapter 03
00:18:15.010                             : en:Chapter 04
00:20:40.280                             : en:Chapter 05
00:23:22.359                             : en:Chapter 06
00:25:35.492                             : en:Chapter 07
00:30:11.184                             : en:Chapter 08
00:35:24.831                             : en:Chapter 09
00:38:47.950                             : en:Chapter 10
00:42:06.148                             : en:Chapter 11
00:43:52.546                             : en:Chapter 12
00:48:10.637                             : en:Chapter 13
00:53:29.289                             : en:Chapter 14
00:57:18.810                             : en:Chapter 15
01:00:49.437                             : en:Chapter 16
01:04:26.863                             : en:Chapter 17
01:11:14.561                             : en:Chapter 18
01:14:07.234                             : en:Chapter 19
01:16:12.109                             : en:Chapter 20


Відома пісня з мультфільму - номінант на Золотий глобус-2003: "Here I Am" Браяна Адамса




Джерела та подяки: &
ріп відео, оригінальні звук та субтитри - kaspr (MediaClub); українська доріжка - MechanicCDRR - зведення, Soyer - запис з ТБ, dbdeveloper - робота з 5.1; українські постери - Пушкар Остап та Dj BenLaden (всі - Гуртом).

Особиста оцінка: 10 - рекомендую всім дітям та їх батькам


ЗАЛИШАЙТЕСЬ ЯКОМОГА ДОВШЕ НА РОЗДАЧІ!

СКАЧАВ САМ - ДАЙ СКАЧАТИ ІНШИМ


Срібний реліз (на рейтинг впливає 50% завантаженого)
 Трекер:    Зареєстрований   

Завантажити / скачати мультфільм українською



відео для новачків



 Зареєстрований:   2014-05-31 19:30
 Розмір:   3.96 GB 
 Оцінка мультфільму:   7.5/10 (Голосів: 38)
   
Wizard_Harry 
Свій


З нами з: 11.10.13
Востаннє: 23.08.17
Повідомлень: 112

2015-02-19 21:08  
Один з небагатьох кращих мультів за всі часи. Рекомендую до перегляду. Дякую)
boroznaya 
VIP


З нами з: 02.11.12
Востаннє: 24.08.17
Повідомлень: 2264

2016-10-09 11:16  
Неперевершений мульт про життя незламного мустанга Спіріта, який до сліз зачіпає за живе, а пісня "Here I Am" Браяна Адамса є однією з улюблених у дискографії співака.
Ваш часовий пояс: GMT + 2 Години

Нова тема   Відповісти