Осмозіс Джонс / Osmosis Jones (2001) 720p Ukr/Eng | Sub Multi

Нові коментарі

Нова тема   Відповісти
Автор Повідомлення
Anonymous 







2014-05-31 17:36  
Осмозіс Джонс / Osmosis Jones (2001) 720p Ukr/Eng | Sub Multi



Жанр: анімація, фентезі, бойовик, комедія, пригодницький, сімейний
Країна: США



Кінокомпанія: Warner Bros., Conundrum Entertainment
Режисер: Боббі Фарреллі / Bobby Farrelly, Пітер Фарреллі / Peter Farrelly
Актори: Білл Мюррей / Bill Murray, Лоуренс Фішберн / Laurence Fishburne, Елена Франклін / Elena Franklin, Моллі Шеннон / Molly Shannon, Кріс Елліот / Chris Elliott, Кріс Рок / Chris Rock, Девід Хайд Пірс / David Hyde Pierce, Бренді Норвуд / Brandy Norwood, Вільям Шетнер / William Shatner, Рон Говард / Ron Howard, Кід Рок / Kid Rock, Кенні Олсон / Kenny Olson, Джейсон Краузе / Jason Krause, Джо С. / Joe C. та інші

Сюжет:
Він - новий герой. Одноклітинний герой нашого часу. Він - Осмозіс Джонс. Цей мультиплікаційний бойовик починається з того, що Френк проковтує лиходійський вірус на ім'я Трекс. Тепер, глибоко усередині дивовижних мультиплікаційних нутрощів міста Френк, самотній поліцейський - біла кров'яна клітина на ім'я Осмозіс Джонс та його наполегливий помічник Дрікс повинні перешкодити смертельній епідемії, що її розв'язав Трекс!



Рейтинг MPAA: PG - рекомендується присутність батьків
Вікова категорія: 6+


Тривалість: 01:35:23
Якість: 720p
Відео:
кодек:
розмір кадру: 1280x542
бітрейт: 3996 кбіт/с

Аудіо # 1:
мова: українська
переклад: двоголосий закадровий
кодек: 5.1
бітрейт: 384 кбіт/с

Аудіо # 2:
мова: англійська
переклад: оригінал
кодек: 5.1
бітрейт: 384 кбіт/с

Аудіо # 3:
мова: англійська
переклад: коментарі
кодек: 2.0
бітрейт: 192 кбіт/с

Субтитри # 1:
мова: українська (форсовані) - на кілька неозвучених українською фраз
тип: програмні (м'які)
формат: *.srt

Субтитри # 2-5:
мова: англійська (варіант1), англійська (варіант2), чеська, польська.
тип: програмні (м'які)
формат: *.srt

Збережено оригінальні розділи.
Info
Код:
General
Unique ID                                : 223931287636249668119701396267909265797 (0xA87798E45A453BB280BA8261F5803985)
Complete name                            : Osmosis Jones (2001) [Ukr,Eng sub.Multi] 720p [Hurtom & HDClub].
Format                                   :
Format version                           : Version 4 / Version 2
File size                                : 3.37 GiB
Duration                                 : 1h 35mn
Overall bit rate                         : 5 057 Kbps
Movie name                               : Осмозіс Джонс / Osmosis Jones (2001) 720p [Hurtom & HDClub]
Encoded date                             : UTC 2014-05-31 11:21:59
Writing application                      : mkvmerge v6.9.1 ('Blue Panther') 64bit built on Apr 18 2014 18:23:38
Writing library                          : libebml v1.3.0 + libmatroska v1.4.1

Video
ID                                       : 1
Format                                   : AVC
Format/Info                              : Advanced Video Codec
Format profile                           : [email protected]
Format settings, CABAC                   : No
Format settings, ReFrames                : 2 frames
Codec ID                                 : V_MPEG4/ISO/AVC
Duration                                 : 1h 35mn
Bit rate                                 : 3 996 Kbps
Width                                    : 1 280 pixels
Height                                   : 542 pixels
Display aspect ratio                     : 2.35:1
Frame rate mode                          : Constant
Frame rate                               : 23.976 fps
Color space                              : YUV
Chroma subsampling                       : 4:2:0
Bit depth                                : 8 bits
Scan type                                : Progressive
Bits/(Pixel*Frame)                       : 0.240
Stream size                              : 2.66 GiB (79%)
Title                                    : Осмозіс Джонс / Osmosis Jones / Осмосис Джонс (2001) 720p [HDClub]
Language                                 : English
Default                                  : Yes
Forced                                   : No
Color primaries                          : BT.709
Transfer characteristics                 : BT.709
Matrix coefficients                      : BT.709

Audio #1
ID                                       : 2
Format                                   : AC-3
Format/Info                              : Audio Coding 3
Mode extension                           : CM (complete main)
Format settings, Endianness              : Big
Codec ID                                 : A_AC3
Duration                                 : 1h 35mn
Bit rate mode                            : Constant
Bit rate                                 : 384 Kbps
Channel(s)                               : 6 channels
Channel positions                        : Front: L C R, Side: L R, LFE
Sampling rate                            : 48.0 KHz
Bit depth                                : 16 bits
Compression mode                         : Lossy
Stream size                              : 262 MiB (8%)
Title                                    : DVO [Novyj] 5.1 384 Kbps [Hurtom-imonko]
Language                                 : Ukrainian
Default                                  : Yes
Forced                                   : Yes

Audio #2
ID                                       : 3
Format                                   : AC-3
Format/Info                              : Audio Coding 3
Mode extension                           : CM (complete main)
Format settings, Endianness              : Big
Codec ID                                 : A_AC3
Duration                                 : 1h 35mn
Bit rate mode                            : Constant
Bit rate                                 : 384 Kbps
Channel(s)                               : 6 channels
Channel positions                        : Front: L C R, Side: L R, LFE
Sampling rate                            : 48.0 KHz
Bit depth                                : 16 bits
Compression mode                         : Lossy
Stream size                              : 262 MiB (8%)
Title                                    : Original
Language                                 : English
Default                                  : No
Forced                                   : No

Audio #3
ID                                       : 4
Format                                   : AC-3
Format/Info                              : Audio Coding 3
Mode extension                           : CM (complete main)
Format settings, Endianness              : Big
Codec ID                                 : A_AC3
Duration                                 : 1h 35mn
Bit rate mode                            : Constant
Bit rate                                 : 192 Kbps
Channel(s)                               : 2 channels
Channel positions                        : Front: L R
Sampling rate                            : 48.0 KHz
Bit depth                                : 16 bits
Compression mode                         : Lossy
Stream size                              : 131 MiB (4%)
Title                                    : Commentary
Language                                 : English
Default                                  : No
Forced                                   : No

Text #1
ID                                       : 5
Format                                   : UTF-8
Codec ID                                 : S_TEXT/UTF8
Codec ID/Info                            : UTF-8 Plain Text
Title                                    : Ukr Forced
Language                                 : Ukrainian
Default                                  : No
Forced                                   : No

Text #2
ID                                       : 6
Format                                   : UTF-8
Codec ID                                 : S_TEXT/UTF8
Codec ID/Info                            : UTF-8 Plain Text
Title                                    : Eng Full #1 (DVD)
Language                                 : English
Default                                  : No
Forced                                   : No

Text #3
ID                                       : 7
Format                                   : UTF-8
Codec ID                                 : S_TEXT/UTF8
Codec ID/Info                            : UTF-8 Plain Text
Title                                    : Eng Full #2 (DVD)
Language                                 : English
Default                                  : No
Forced                                   : No

Text #4
ID                                       : 8
Format                                   : UTF-8
Codec ID                                 : S_TEXT/UTF8
Codec ID/Info                            : UTF-8 Plain Text
Title                                    : Cze Full (DVD)
Language                                 : Czech
Default                                  : No
Forced                                   : No

Text #5
ID                                       : 9
Format                                   : UTF-8
Codec ID                                 : S_TEXT/UTF8
Codec ID/Info                            : UTF-8 Plain Text
Title                                    : Pol Full (DVD)
Language                                 : Polish
Default                                  : No
Forced                                   : No

Menu
00:00:00.000                             : en:1
00:11:04.000                             : en:2
00:18:16.000                             : en:3
00:26:25.000                             : en:4
00:32:09.000                             : en:5
00:40:44.000                             : en:6
00:48:38.000                             : en:7
00:55:35.000                             : en:8
01:05:25.000                             : en:9
01:12:58.000                             : en:10
01:19:02.000                             : en:11
01:26:56.000                             : en:12




Джерела та подяки: &
ріп відео, оригінальні звук та субтитри - HDClub; українська доріжка - imonko - зведення, OlegCena - запис з ТБ (обоє - Гуртом).

Особиста оцінка: 10 - рекомендую всім дітям та їх батькам


ЗАЛИШАЙТЕСЬ ЯКОМОГА ДОВШЕ НА РОЗДАЧІ!

СКАЧАВ САМ - ДАЙ СКАЧАТИ ІНШИМ


Срібний реліз (на рейтинг впливає 50% завантаженого)
 Трекер:    Зареєстрований   

Завантажити / скачати мультфільм українською



відео для новачків



 Зареєстрований:   2014-05-31 17:36
 Розмір:   3.37 GB 
 Оцінка мультфільму:   6.2/10 (Голосів: 24)
   
Інші релізи
   Осмозіс Джонс / Osmosis Jones (2001) AVC Ukr/Eng | Sub Eng igor911  2 / 0   2.01 GB   2014-06-01 02:59 
   Осмозіс Джонс / Osmosis Jones (2001) Ukr/Eng |Sub Eng imonko  4 / 0   1.72 GB   2012-02-05 23:43 
Anonymous 







2014-06-01 15:49  
Ваш часовий пояс: GMT + 2 Години

Нова тема   Відповісти