Межа пустоти: Сад грішників. Незникаюче відчуття болю / 劇場版 空の境界/第三章 痛覚残留 / Gekijouban Kara no Kyoukai: Dai San Shou - Tsuukaku Zanryuu / Boundary of Emptiness: Remaining Sense of Pain (2008) 720p Ukr/Jap

Нові коментарі

Нова тема   Відповісти
Останній раз роздавалося Ліхтарник (2017-08-24)
Автор Повідомлення
Patlati Продакшнз 
Частий відвідувач


З нами з: 09.01.12
Востаннє: 16.03.17
Повідомлень: 35

2014-05-24 02:16  
Межа пустоти: Сад грішників. Незникаюче відчуття болю / 劇場版 空の境界/第三章 痛覚残留 / Gekijouban Kara no Kyoukai: Dai San Shou - Tsuukaku Zanryuu / Boundary of Emptiness: Remaining Sense of Pain (2008) 720p Ukr/Jap

Межа пустоти: Сад грішників. Незникаюче відчуття болю / 劇場版 空の境界/第三章 痛覚残留 / Gekijouban Kara no Kyoukai: Dai San Shou - Tsuukaku Zanryuu / Boundary of Emptiness: Remaining Sense of Pain (2008) 720p Ukr/Jap


Жанр: трилер, містика, жахи
Країна: Японія



8.49 (4892 голосів)

Кінокомпанія: Ufotable (NASU/Kodansha•Aniplex•Notes•ufotable)
Режисер: Обунай Мацуру
Ролі озвучують: Сакамото Маайа, Сузумура Кенічі, Хонда Такако, Ното Маміко

Сюжет:
Липень 1998 року: Мікія допомагає дівчині на ім'я Фуджіно, а наступного дня по телебаченню повідомляють про криваве вбивство у покинутому барі. Що пов'язує милу дівчину з безжалісним нелюдом? Шікі та Мікія мають знайти та знешкодити вбивцю.
Серія анімаційних фільмів "Межа пустоти" створена на основі роману Кіноко Насу.


Тривалість: 57:24
Відео:
кодек:
розмір кадру: 1280x720
бітрейт: 4046 кб/с

Аудіо # 1:
мова: українська
переклад: багатоголосий закадровий (Patlati Продакшнз)
кодек: 5.1
бітрейт: 1509 кб/с

Аудіо # 2:
мова: японська
переклад: оригінал
кодек: 5.1
бітрейт: 1509 кб/с
Info
General
Unique ID : 195999337584006715281571980398796026876 (0x9374196DE8665587856FEF13345D33FC)
Complete name : D:\VIDEO\Toorentz-out\Mezha\Kara no Kyoukai 720p.
Format :
Format version : Version 2
File size : 2.89 GiB
Duration : 57mn 24s
Overall bit rate : 7 208 Kbps
Encoded date : UTC 2014-05-14 19:26:37
Writing application : mkvmerge v3.2.0 ('Beginnings') built on Feb 12 2010 16:46:17
Writing library : libebml v0.7.9 + libmatroska v0.8.1
Attachment : Yes / Yes / Yes / Yes / Yes / Yes / Yes / Yes / Yes / Yes / Yes / Yes / Yes / Yes / Yes
Video #1
ID : 1
Format : AVC
Format/Info : Advanced Video Codec
Format profile : [email protected]
Format settings, CABAC : Yes
Format settings, ReFrames : 8 frames
Codec ID : V_MPEG4/ISO/AVC
Duration : 57mn 24s
Bit rate : 4 046 Kbps
Width : 1 280 pixels
Height : 720 pixels
Display aspect ratio : 16:9
Frame rate mode : Constant
Frame rate : 23.976 fps
Color space : YUV
Chroma subsampling : 4:2:0
Bit depth : 8 bits
Scan type : Progressive
Bits/(Pixel*Frame) : 0.183
Stream size : 1.62 GiB (56%)
Writing library : core 112 r1867 22bfd31
Encoding settings : cabac=1 / ref=8 / deblock=1:0:0 / analyse=0x3:0x133 / me=umh / subme=9 / psy=1 / psy_rd=0.70:0.00 / mixed_ref=1 / me_range=32 / chroma_me=1 / trellis=2 / 8x8dct=1 / cqm=0 / deadzone=21,11 / fast_pskip=0 / chroma_qp_offset=-3 / threads=12 / sliced_threads=0 / nr=0 / decimate=0 / interlaced=0 / constrained_intra=0 / bframes=10 / b_pyramid=0 / b_adapt=2 / b_bias=0 / direct=1 / weightb=1 / open_gop=0 / weightp=2 / keyint=250 / keyint_min=23 / scenecut=40 / intra_refresh=0 / rc=crf / mbtree=0 / crf=15.8 / qcomp=0.75 / qpmin=8 / qpmax=26 / qpstep=4 / ip_ratio=1.40 / pb_ratio=1.30 / aq=1:1.00
Language : English
Default : No
Forced : No
Audio #2
ID : 2
Format :
Format/Info : Digital Theater Systems
Mode : 16
Format settings, Endianness : Big
Codec ID : A_DTS
Duration : 57mn 24s
Bit rate mode : Constant
Bit rate : 1 509 Kbps
Channel(s) : 6 channels
Channel positions : Front: L C R, Side: L R, LFE
Sampling rate : 48.0 KHz
Bit depth : 24 bits
Compression mode : Lossy
Stream size : 620 MiB (21%)
Language : Ukrainian
Default : Yes
Forced : No
Audio #3
ID : 3
Format :
Format/Info : Digital Theater Systems
Mode : 16
Format settings, Endianness : Big
Codec ID : A_DTS
Duration : 57mn 24s
Bit rate mode : Constant
Bit rate : 1 509 Kbps
Channel(s) : 6 channels
Channel positions : Front: L C R, Side: L R, LFE
Sampling rate : 48.0 KHz
Bit depth : 24 bits
Compression mode : Lossy
Stream size : 620 MiB (21%)
Language : Japanese
Default : No
Forced : No
Скріншоти





Джерело: Patlati Продакшнз
Ролі озвучили: Oni, Ito, Elvira, Zirko, Sancho, Наталка Полтавка and guest superstars
Особиста оцінка: 10 - без зайвих вагань рекомендую всім!


Авторський реліз (завантажувати можна без реєстрації)
 Трекер:    Зареєстрований   

Завантажити / скачати аніме українською



відео для новачків



 Зареєстрований:   2014-05-24 21:17
 Розмір:   2.89 GB 
 Оцінка аніме:   10/10 (Голосів: 3)
   
bot 
робот


З нами з: 30.09.07
Востаннє: 26.05.05
Повідомлень: 17418

2014-05-24 02:16  
Тему перенесено з Аніме до форуму Анонси релізів


Patlati Продакшнз

wolverine 
VIP


З нами з: 26.09.09
Востаннє: 23.08.17
Повідомлень: 326

2014-05-24 17:38  
оце так) ну чекаємо на реліз)
bot 
робот


З нами з: 30.09.07
Востаннє: 26.05.05
Повідомлень: 17418

2014-05-24 21:16  
Тему перенесено з Анонси релізів до форуму Аніме


Patlati Продакшнз

Ваш часовий пояс: GMT + 2 Години

Нова тема   Відповісти