Театр мороку / 闇芝居 / Yami Shibai / Yamishibai: Japanese Ghost Stories (2013) 1080p Ukr/Jap

Нові коментарі

Нова тема   Відповісти
Останній раз роздавалося Akiraigo5 (2017-07-18)
Автор Повідомлення
Patlati Продакшнз 
Частий відвідувач


З нами з: 09.01.12
Востаннє: 16.03.17
Повідомлень: 35

2014-05-24 01:35  
Театр мороку / 闇芝居 / Yami Shibai / Yamishibai: Japanese Ghost Stories (2013) 1080p Ukr/Jap

Театр мороку / 闇芝居 / Yami Shibai / Yamishibai: Japanese Ghost Stories (2013) 1080p Ukr/Jap


Жанр: жахи
Країна: Японія



6.50 (156 голосів)

Кінокомпанія: ILCA
Режисер: Томоя Такашіма
Ролі озвучують: Канджі Цуда, Сара, Шьоічіро Масумото, Рьота Мурай, Савакі Акімото

Сюжет:
У кожного народу, кожної країни є свої темні сторони. Японці - знані у світі майстри жанру жахів. Пропонуємо добірку коротких історій, у яких змальоване сучасне життя, оповите давніми віруваннями, пронизане світом духів та потойбічного. Колись, в одному місті жив...


Тривалість: 1 серія: 04:30 (цілком серій: 13)
Якість:
кодек:
розмір кадру: 1920x1080
бітрейт: 3072 - 3968 кб/с

Аудіо:
мова: українська
переклад: багатоголосий закадровий (Patlati Продакшнз)
кодек: 2.0
бітрейт: 448 кб/с

Аудіо # 2:
мова: японська
переклад: оригінал
кодек: 2.0
бітрейт: 448 кб/с
Info

General
Unique ID : 215385552053770918704235677543240735981 (0xA209BF9908DE41A9A40D4E0105269CED)
Format :
Format version : Version 2
File size : 127 MiB
Duration : 4mn 29s
Overall bit rate : 3 963 Kbps
Encoded date : UTC 2014-05-15 08:17:03
Writing application : mkvmerge v3.2.0 ('Beginnings') built on Feb 12 2010 16:46:17
Writing library : libebml v0.7.9 + libmatroska v0.8.1
Attachment : Yes
Video #1
ID : 1
Format : AVC
Format/Info : Advanced Video Codec
Format profile : High@L4.0
Format settings, CABAC : Yes
Format settings, ReFrames : 4 frames
Codec ID : V_MPEG4/ISO/AVC
Duration : 4mn 29s
Bit rate : 3 072 Kbps
Width : 1 920 pixels
Height : 1 080 pixels
Display aspect ratio : 16:9
Frame rate mode : Constant
Frame rate : 23.976 fps
Color space : YUV
Chroma subsampling : 4:2:0
Bit depth : 8 bits
Scan type : Progressive
Bits/(Pixel*Frame) : 0.062
Stream size : 96.1 MiB (75%)
Writing library : core 120 r2120 0c7dab9
Encoding settings : cabac=1 / ref=4 / deblock=1:1:1 / analyse=0x3:0x113 / me=umh / subme=8 / psy=1 / psy_rd=0.40:0.00 / mixed_ref=1 / me_range=16 / chroma_me=1 / trellis=1 / 8x8dct=1 / cqm=0 / deadzone=21,11 / fast_pskip=1 / chroma_qp_offset=-2 / threads=8 / sliced_threads=0 / nr=0 / decimate=1 / interlaced=0 / bluray_compat=0 / constrained_intra=0 / bframes=3 / b_pyramid=2 / b_adapt=2 / b_bias=0 / direct=3 / weightb=1 / open_gop=0 / weightp=2 / keyint=250 / keyint_min=23 / scenecut=40 / intra_refresh=0 / rc_lookahead=50 / rc=2pass / mbtree=1 / bitrate=3072 / ratetol=1.0 / qcomp=0.60 / qpmin=0 / qpmax=69 / qpstep=4 / cplxblur=20.0 / qblur=0.5 / vbv_maxrate=6144 / vbv_bufsize=15360 / nal_hrd=none / ip_ratio=1.40 / aq=1:0.60
Default : No
Forced : Yes
Audio #2
ID : 2
Format : AC-3
Format/Info : Audio Coding 3
Mode extension : CM (complete main)
Format settings, Endianness : Big
Codec ID : A_AC3
Duration : 4mn 29s
Bit rate mode : Constant
Bit rate : 448 Kbps
Channel(s) : 2 channels
Channel positions : Front: L R
Sampling rate : 48.0 KHz
Bit depth : 16 bits
Compression mode : Lossy
Stream size : 14.4 MiB (11%)
Language : Ukrainian
Default : Yes
Forced : No
Audio #3
ID : 3
Format : AC-3
Format/Info : Audio Coding 3
Mode extension : CM (complete main)
Format settings, Endianness : Big
Codec ID : A_AC3
Duration : 4mn 29s
Bit rate mode : Constant
Bit rate : 448 Kbps
Channel(s) : 2 channels
Channel positions : Front: L R
Sampling rate : 48.0 KHz
Bit depth : 16 bits
Compression mode : Lossy
Stream size : 14.4 MiB (11%)
Language : Japanese
Default : No
Forced : No
Скріншоти






Джерело: Patlati Продакшнз
Ролі озвучили: Oni, Ito, Elvira, Zirko, Sancho and guest superstars
Особиста оцінка: 9 - давно не бачив настільки якісне кіно


Авторський реліз (завантажувати можна без реєстрації)
 Трекер:    Зареєстрований   

Завантажити / скачати аніме українською



відео для новачків



 Зареєстрований:   2014-05-25 00:53
 Розмір:   1.62 GB 
 Оцінка аніме:   9.8/10 (Голосів: 4)
   
bot 
робот


З нами з: 30.09.07
Востаннє: 26.05.05
Повідомлень: 17362

2014-05-24 01:35  
Тему перенесено з Аніме до форуму Анонси релізів


Patlati Продакшнз

bot 
робот


З нами з: 30.09.07
Востаннє: 26.05.05
Повідомлень: 17362

2014-05-25 00:53  
Тему перенесено з Анонси релізів до форуму Аніме


Patlati Продакшнз

Gedet 
Відео Гуртом - субтитрування
Відео Гуртом - субтитрування


З нами з: 17.11.11
Востаннє: 17.05.17
Повідомлень: 1798

2014-05-27 10:09  
Боженьку, та немає до цього циклу БД ріпів. Ви взяли Веб ріпи від Горібл сабс. - замініть будь-ласка.
Ваш часовий пояс: GMT + 2 Години

Нова тема   Відповісти