Театр мороку / 闇芝居 / Yami Shibai / Yamishibai: Japanese Ghost Stories (2013) 720p Ukr/Jap

Нові коментарі

Нова тема   Відповісти
Автор Повідомлення
Patlati Продакшнз 
Частий відвідувач


З нами з: 09.01.12
Востаннє: 16.03.17
Повідомлень: 35

2014-05-24 01:33  
Театр мороку / 闇芝居 / Yami Shibai / Yamishibai: Japanese Ghost Stories (2013) 720p Ukr/Jap

Театр мороку / 闇芝居 / Yami Shibai / Yamishibai: Japanese Ghost Stories (2013) 720p Ukr/Jap


Жанр: жахи
Країна: Японія



6.50 (156 голосів)

Кінокомпанія: ILCA
Режисер: Томоя Такашіма
Ролі озвучують: Канджі Цуда, Сара, Шьоічіро Масумото, Рьота Мурай, Савакі Акімото

Сюжет:
У кожного народу, кожної країни є свої темні сторони. Японці - знані у світі майстри жанру жахів. Пропонуємо добірку коротких історій, у яких змальоване сучасне життя, оповите давніми віруваннями, пронизане світом духів та потойбічного. Колись, в одному місті жив...


Тривалість: 1 серія: 04:30 (цілком серій: 13)
Якість:
кодек:
розмір кадру: 1280x720
бітрейт: 2199 - 4950 кб/с

Аудіо:
мова: українська
переклад: багатоголосий закадровий (Patlati Продакшнз)
кодек: 2.0
бітрейт: 448 кб/с

Аудіо # 2:
мова: японська
переклад: оригінал
кодек: 2.0
бітрейт: 448 кб/с
Info
General
Unique ID : 204128099107493271401703880749733291767 (0x9991A450B00D6D1190D05A1AA81AA6F7)
Format :
Format version : Version 2
File size : 149 MiB
Duration : 4mn 30s
Overall bit rate : 4 627 Kbps
Encoded date : UTC 2014-05-15 08:40:52
Writing application : mkvmerge v3.2.0 ('Beginnings') built on Feb 12 2010 16:46:17
Writing library : libebml v0.7.9 + libmatroska v0.8.1
Attachment : Yes / Yes / Yes / Yes / Yes
Video #1
ID : 1
Format : AVC
Format/Info : Advanced Video Codec
Format profile : High [email protected]
Format settings, CABAC : Yes
Format settings, ReFrames : 16 frames
Codec ID : V_MPEG4/ISO/AVC
Duration : 4mn 30s
Bit rate : 3 639 Kbps
Width : 1 280 pixels
Height : 720 pixels
Display aspect ratio : 16:9
Frame rate mode : Constant
Frame rate : 29.970 fps
Color space : YUV
Chroma subsampling : 4:2:0
Bit depth : 10 bits
Scan type : Progressive
Bits/(Pixel*Frame) : 0.132
Stream size : 117 MiB (79%)
Title : Yami Shibai - 02
Writing library : core 129 r2230 1cffe9f
Encoding settings : cabac=1 / ref=16 / deblock=1:0:0 / analyse=0x3:0x133 / me=umh / subme=10 / psy=1 / psy_rd=1.00:0.00 / mixed_ref=1 / me_range=24 / chroma_me=1 / trellis=2 / 8x8dct=1 / cqm=0 / deadzone=21,11 / fast_pskip=1 / chroma_qp_offset=-2 / threads=6 / lookahead_threads=1 / sliced_threads=0 / nr=0 / decimate=1 / interlaced=0 / bluray_compat=0 / constrained_intra=0 / bframes=8 / b_pyramid=2 / b_adapt=2 / b_bias=0 / direct=3 / weightb=1 / open_gop=0 / weightp=2 / keyint=250 / keyint_min=25 / scenecut=40 / intra_refresh=0 / rc_lookahead=60 / rc=crf / mbtree=1 / crf=19.0 / qcomp=0.60 / qpmin=0 / qpmax=81 / qpstep=4 / ip_ratio=1.40 / aq=1:1.00
Language : Japanese
Default : No
Forced : No
Audio #2
ID : 2
Format : AC-3
Format/Info : Audio Coding 3
Mode extension : CM (complete main)
Format settings, Endianness : Big
Codec ID : A_AC3
Duration : 4mn 30s
Bit rate mode : Constant
Bit rate : 448 Kbps
Channel(s) : 2 channels
Channel positions : Front: L R
Sampling rate : 48.0 KHz
Bit depth : 16 bits
Compression mode : Lossy
Stream size : 14.4 MiB (10%)
Language : Ukrainian
Default : Yes
Forced : No
Audio #3
ID : 3
Format : AC-3
Format/Info : Audio Coding 3
Mode extension : CM (complete main)
Format settings, Endianness : Big
Codec ID : A_AC3
Duration : 4mn 30s
Bit rate mode : Constant
Bit rate : 448 Kbps
Channel(s) : 2 channels
Channel positions : Front: L R
Sampling rate : 48.0 KHz
Bit depth : 16 bits
Compression mode : Lossy
Stream size : 14.4 MiB (10%)
Language : Japanese
Default : No
Forced : No
Скріншоти






Джерело: Patlati Продакшнз
Ролі озвучили: Oni, Ito, Elvira, Zirko, Sancho and guest superstars
Особиста оцінка: 9 - давно не бачив настільки якісне кіно


Авторський реліз (завантажувати можна без реєстрації)
 Трекер:    Зареєстрований   

Завантажити / скачати аніме українською



відео для новачків



 Зареєстрований:   2014-05-25 00:09
 Розмір:   2.07 GB 
 Оцінка аніме:   -/10 (Голосів: 0)
   
bot 
робот


З нами з: 30.09.07
Востаннє: 26.05.05
Повідомлень: 17415

2014-05-24 01:33  
Тему перенесено з Аніме до форуму Анонси релізів


Patlati Продакшнз

bot 
робот


З нами з: 30.09.07
Востаннє: 26.05.05
Повідомлень: 17415

2014-05-24 23:38  
Тему перенесено з Анонси релізів до форуму Аніме


Patlati Продакшнз

bot 
робот


З нами з: 30.09.07
Востаннє: 26.05.05
Повідомлень: 17415

2014-05-24 23:41  
Тему перенесено з Аніме до форуму Анонси релізів


Patlati Продакшнз

bot 
робот


З нами з: 30.09.07
Востаннє: 26.05.05
Повідомлень: 17415

2014-05-24 23:48  
Тему перенесено з Анонси релізів до форуму Аніме


Patlati Продакшнз

kino. 
Модератор відео


З нами з: 27.06.10
Востаннє: 23.08.17
Повідомлень: 2897

2014-05-25 06:11  
Patlati Продакшнз написано:
Якість:

Це

Gedet 
Відео Гуртом - субтитрування
Відео Гуртом - субтитрування


З нами з: 17.11.11
Востаннє: 17.05.17
Повідомлень: 1798

2014-05-26 01:08  
Таки так. БД навіть немає.
Ваш часовий пояс: GMT + 2 Години

Нова тема   Відповісти