Тулим - Хронологія​ (​2012) [] | Hardcore underground rap

Нові коментарі

Нова тема   Відповісти
Останній раз роздавалося Un_01 (2018-12-03)
Автор Повідомлення
Anonymous 







2014-05-21 23:17  
Тулим - Хронологія​ (​2012) [] | Hardcore underground rap

Тулим - Хронологія​ (​2012) [] | Hardcore underground rap


Стиль: Hardcore underground rap
Країна, місто: Україна, Київ
Видавець: гурт
Виконавці:
КуLЯ, RYLEZ
Mad Cypha, Sirius MC, Deep Fog, Булік
Пісні:
    1. Інтро
    2. Класична форма
    3. Блукаюча між поколінь
    4. Від народження до титрів
    5. Cкіт
    6. Не підвладна провокаціям
    7. Незвана
    8. Тримаємо секрети (за уч. Sirius MC)
    9. Хронічний фанк
    10. Пн-Пт
    11. Відчуй смак (за уч. Mad Cypha)
    12. Хронологія
    13. Б.І.С.
    14. Час покаже (за уч. Булік)
    15. М.П.С.
    16. Панацея
    17. Скіт
    18. Конфлікт (за уч. Deep Fog, Булік)
    19. Не стерти
    20. Аутро

Тривалість: 01:01:31
Мова: українська
Аудіо-кодек:
Бітрейт: 911 кб/с
Джерело: диск Funky_Soul
Додаткова інформація:
log
Exact Audio Copy V0.99 prebeta 5 from 4. May 2009

Звіт EAC про видобування, котре виконане 20. травня 2014, 23:27

Тулим / Хронологія

Дисковод: SlimtypeDVD A DS8A1H Adapter: 0 ID: 0

Режим читання : Точний
Використати точний потік : Так
Вимкнути аудіо кеш : Так
Застосувати мітки C2 : Ні

Корекція зміщення при читанні : 594
Екстрачитання областей Lead-in і Lead-out : Ні
Заповнення пропущених семплів тишею : Так
Видалення блоків з тишею на початку і кінці : Ні
При вирахуванні CRC використовувались нульові семпли : Так
Використаний інтерфейс : 'Рідний' Win32-інтерфейс для Win NT/2000

Застосований вихідний формат : Кодер Користувача
Обраний бітрейт : 1024 kBit/s
Якість : Високий
Додати тег ID3 : Ні
Компресор командного рядка : C:\Program Files\Exact Audio Copy\\.exe
Додаткові параметри командного рядка : -8 -V -T "ARTIST=%a" -T "TITLE=%t" -T "ALBUM=%g" -T "DATE=%y" -T "TRACKNUMBER=%n" -T "GENRE=%m" -T "COMMENT=EAC -8" %s

TOC видобутого CD

Трек | Старт | Довжина | Початковий сектор | Кінцевий сектор
------------------------------------------------------------------
1 | 0:00.00 | 1:43.50 | 0 | 7774
2 | 1:43.50 | 4:02.12 | 7775 | 25936
3 | 5:45.62 | 2:58.16 | 25937 | 39302
4 | 8:44.03 | 3:31.22 | 39303 | 55149
5 | 12:15.25 | 1:13.53 | 55150 | 60677
6 | 13:29.03 | 3:34.42 | 60678 | 76769
7 | 17:03.45 | 3:23.24 | 76770 | 92018
8 | 20:26.69 | 4:03.34 | 92019 | 110277
9 | 24:30.28 | 3:25.39 | 110278 | 125691
10 | 27:55.67 | 2:40.20 | 125692 | 137711
11 | 30:36.12 | 4:21.42 | 137712 | 157328
12 | 34:57.54 | 3:24.31 | 157329 | 172659
13 | 38:22.10 | 3:05.38 | 172660 | 186572
14 | 41:27.48 | 2:54.32 | 186573 | 199654
15 | 44:22.05 | 3:26.41 | 199655 | 215145
16 | 47:48.46 | 3:24.00 | 215146 | 230445
17 | 51:12.46 | 0:15.32 | 230446 | 231602
18 | 51:28.03 | 5:28.48 | 231603 | 256250
19 | 56:56.51 | 3:11.29 | 256251 | 270604
20 | 60:08.05 | 1:22.73 | 270605 | 276827

Статус діапазону і помилки

Обраний діапазон

Ім'я файлу C:\Temp\Тулим\Тулим - Хронологія.wav

Піковий рівень 100.0 %
Якість діапазону 100.0 %
CRC тесту 38322824
CRC копії 38322824
Копіювання... OK

Помилки не траплялися

Звіт Точного Видобування

Трек 1 не присутнє в базі даних
Трек 2 не присутнє в базі даних
Трек 3 не присутнє в базі даних
Трек 4 не присутнє в базі даних
Трек 5 не присутнє в базі даних
Трек 6 не присутнє в базі даних
Трек 7 не присутнє в базі даних
Трек 8 не присутнє в базі даних
Трек 9 не присутнє в базі даних
Трек 10 не присутнє в базі даних
Трек 11 не присутнє в базі даних
Трек 12 не присутнє в базі даних
Трек 13 не присутнє в базі даних
Трек 14 не присутнє в базі даних
Трек 15 не присутнє в базі даних
Трек 16 не присутнє в базі даних
Трек 17 не присутнє в базі даних
Трек 18 не присутнє в базі даних
Трек 19 не присутнє в базі даних
Трек 20 не присутнє в базі даних

Жодного трека немає в базі AccurateRip

Кінець звіту
fooCDtect
fooCDtect - foobar2000 + auCDtect, baralgin.

auCDtect: CD records authenticity detector, version 0.8.2
Copyright (c) 2004 Oleg Berngardt. All rights reserved.
Copyright (c) 2004 Alexander Djourik. All rights reserved.

mode: 0

===========================================
Track: 01 - Інтро
Quality: CDDA 100%
===========================================
Track: 02 - Класична форма
Quality: CDDA 99%
===========================================
Track: 03 - Блукаюча між поколінь
Quality: CDDA 100%
===========================================
Track: 04 - Від народження до титрів
Quality: CDDA 100%
===========================================
Track: 05 - Cкіт
Quality: MPEG 95%
===========================================
Track: 06 - Не підвладна провокаціям
Quality: CDDA 99%
===========================================
Track: 07 - Незвана
Quality: CDDA 100%
===========================================
Track: 08 - Тримаємо секрети (за уч. Sirius MC)
Quality: CDDA 100%
===========================================
Track: 09 - Хронічний фанк
Quality: CDDA 99%
===========================================
Track: 10 - Пн-Пт
Quality: CDDA 99%
===========================================
Track: 11 - Відчуй смак (за уч. Mad Cypha)
Quality: CDDA 100%
===========================================
Track: 12 - Хронологія
Quality: CDDA 100%
===========================================
Track: 13 - Б.І.С.
Quality: CDDA 100%
===========================================
Track: 14 - Час покаже (за уч. Булік)
Quality: CDDA 100%
===========================================
Track: 15 - М.П.С.
Quality: CDDA 100%
===========================================
Track: 16 - Панацея
Quality: CDDA 100%
===========================================
Track: 17 - Скіт
Quality: MPEG 95%
===========================================
Track: 18 - Конфлікт (за уч. Deep Fog, Булік)
Quality: CDDA 100%
===========================================
Track: 19 - Не стерти
Quality: CDDA 99%
===========================================
Track: 20 - Аутро
Quality: MPEG 95%
===========================================


Якщо Ви справді бажаєте підтримати українське - після прослуховування, якщо музика вам сподобалась,
придбайте ліцензійний диск.
Підтримаймо вітчизняних виконавців!


Срібний реліз (на рейтинг впливає 50% завантаженого)
 Трекер:    Зареєстрований   

Завантажити / скачати українську музику



відео для новачків



 Зареєстрований:   2014-05-21 23:17
 Розмір:   407 MB 
 Оцінка музики:   7.5/10 (Голосів: 11)
   
Anonymous 







2014-05-21 23:17  
yurekkk 
Свій


З нами з: 11.12.12
Востаннє: 23.07.19
Повідомлень: 99

2016-02-05 20:11  
Одна з найкращих українських реп-ватаг. Європейський рівень.
Ваш часовий пояс: GMT + 2 Години

Нова тема   Відповісти