Бі Муві: Медова змова / Bee Movie (2007) 720p Ukr/Eng | Sub Ukr/Eng

Нові коментарі

Нова тема   Відповісти
Автор Повідомлення
braveboy 
Відео Гуртом - команда HD
Відео Гуртом - команда HD


З нами з: 15.06.10
Востаннє: 13.08.17
Повідомлень: 949

2014-05-17 22:32  

Бі Муві: Медова змова / Bee Movie (2007) 720p Ukr/Eng | Sub Ukr/Eng


Бі Муві: Медова змова / Bee Movie (2007) 720p Ukr/Eng | Sub Ukr/Eng


«Злітаються на солодке!»


Жанр: анімація, пригодницький, комедія, сімейний
Країна: США


Кінокомпанія: DreamWorks Animation
Режисер: Стівен Гікнер, Саймон Сміт
Сюжет:
Баррі Бі Нельсон - бджілка, яка тільки що закінчила коледж і вельми розчарована подальшою кар'єрою. Виявляється, єдине, що чекає Баррі - постійний збір меду. У відчаї Баррі наважується вибратися з вулика, заради пригоди, яка змінить його життя назавжди...



Тривалість: 01:30:40
Якість: 720p
Відео:
кодек:
розмір кадру: 1280 х 720
бітрейт: 5293 кб/с

Аудіо # 1:
мова: українська
переклад: професійний дубльований
кодек: 5.1
бітрейт: 384 кб/с

Аудіо # 2:
мова: англійська
переклад: оригінал
кодек: 5.1
бітрейт: 640 кб/с

Джерело озвучення:


Субтитри:
мова: українська
тип: програмні (м'які)
формат: *.srt

Субтитри:
мова: англійська
тип: програмні (м'які)
формат: *.srt
Info
Video
ID : 1
Format : AVC
Format/Info : Advanced Video Codec
Format profile : [email protected]
Format settings, CABAC : Yes
Format settings, ReFrames : 8 frames
Codec ID : V_MPEG4/ISO/AVC
Duration : 1h 30mn
Bit rate : 5 293 Kbps
Width : 1 280 pixels
Height : 720 pixels
Display aspect ratio : 16:9
Frame rate mode : Constant
Frame rate : 23.976 fps
Color space : YUV
Chroma subsampling : 4:2:0
Bit depth : 8 bits
Scan type : Progressive
Bits/(Pixel*Frame) : 0.240
Stream size : 3.27 GiB (82%)
Title : Bee Movie (2007)
Writing library : core 80 r1376M 3feaec2
Encoding settings : cabac=1 / ref=8 / deblock=1:-3:-3 / analyse=0x3:0x113 / me=umh / subme=9 / psy=1 / psy_rd=1.0:0.0 / mixed_ref=0 / me_range=32 / chroma_me=1 / trellis=2 / 8x8dct=1 / cqm=0 / deadzone=21,11 / fast_pskip=0 / chroma_qp_offset=-2 / threads=3 / sliced_threads=0 / nr=0 / decimate=0 / mbaff=0 / constrained_intra=0 / bframes=8 / b_pyramid=2 / b_adapt=2 / b_bias=0 / direct=3 / wpredb=1 / wpredp=2 / keyint=240 / keyint_min=24 / scenecut=40 / rc_lookahead=60 / rc=2pass / mbtree=1 / bitrate=5293 / ratetol=1.0 / qcomp=0.60 / qpmin=10 / qpmax=51 / qpstep=4 / cplxblur=20.0 / qblur=0.5 / vbv_maxrate=50000 / vbv_bufsize=62500 / ip_ratio=1.40 / aq=1:0.80
Language : English
Default : Yes
Forced : No

Audio #1
ID : 2
Format : AC-3
Format/Info : Audio Coding 3
Mode extension : CM (complete main)
Format settings, Endianness : Big
Codec ID : A_AC3
Duration : 1h 30mn
Bit rate mode : Constant
Bit rate : 384 Kbps
Channel(s) : 6 channels
Channel positions : Front: L C R, Side: L R, LFE
Sampling rate : 48.0 KHz
Bit depth : 16 bits
Compression mode : Lossy
Stream size : 249 MiB (6%)
Title : 5.1 384 Kbps [Дубляж, R5]
Language : Ukrainian
Default : Yes
Forced : No

Audio #2
ID : 3
Format : AC-3
Format/Info : Audio Coding 3
Mode extension : CM (complete main)
Format settings, Endianness : Big
Codec ID : A_AC3
Duration : 1h 30mn
Bit rate mode : Constant
Bit rate : 640 Kbps
Channel(s) : 6 channels
Channel positions : Front: L C R, Side: L R, LFE
Sampling rate : 48.0 KHz
Bit depth : 16 bits
Compression mode : Lossy
Stream size : 415 MiB (10%)
Title : 5.1 640 Kbps
Language : English
Default : No
Forced : No

Text #1
ID : 4
Format : UTF-8
Codec ID : S_TEXT/UTF8
Codec ID/Info : UTF-8 Plain Text
Title : Full
Language : Ukrainian
Default : No
Forced : No

Text #2
ID : 5
Format : UTF-8
Codec ID : S_TEXT/UTF8
Codec ID/Info : UTF-8 Plain Text
Title : Full
Language : English
Default : No
Forced : No
Скріншоти





 Трекер:    Зареєстрований   

Завантажити / скачати мультфільм українською



відео для новачків



 Зареєстрований:   2014-05-17 22:32
 Розмір:   4 GB 
 Оцінка мультфільму:   9.8/10 (Голосів: 11)
   
Інші релізи
   Бі Муві: Медова змова / Bee Movie (2007) Ukr | Sub Ukr/Eng karvai0  7 / 0   1.45 GB   2010-10-31 22:33 
   Медова Змова / Bee Movie (2007) 1080p Ukr / Eng | Sub Eng Tenax555  2 / 1   7.14 GB   2009-09-02 03:45 
   Бі Муві: Медова змова / Bee Movie (2007) Undead  10 / 0   1.37 GB   2008-06-25 17:28 
Ваш часовий пояс: GMT + 2 Години

Нова тема   Відповісти