Єдиний (Протистояння) / The One [Open Matte] (2001) AVC 4xUkr/Eng | sub Eng

Нові коментарі

Нова тема   Відповісти
Автор Повідомлення
Anonymous 







2014-05-14 17:23  
Єдиний (Протистояння) / The One [Open Matte] (2001) AVC 4xUkr/Eng | sub Eng

Єдиний (Протистояння) / The One [Open Matte] (2001) AVC 4xUkr/Eng | sub Eng


Жанр: фантастика, бойовик, трилер
Країна: США



Кінокомпанія: Revolution Studios, Hard Eight Pictures
Режисер: Джеймс Вонг / James Wong
Актори: Джет Лі / Jet Li, Джейсон Стетхем / Jason Statham, Карла Гуджіно, Делрой Ліндо, Джеймс Моррісон, Ділан Бруно, Річард Стейнметц, Стів Ренкін, Таккер Смоллвуд, Харріет Сенсом Харріс та інші

Сюжет:
Що робити, якщо твій світ валиться, коли в нього вторгається безжалісний прибулець з паралельних світів? Прагнучи стати надлюдиною, агент Міжпросторового Бюро Розслідувань Габріель Юло здійснює запаморочливе сафарі по паралельних світах, полюючи за своїми двійниками.
Сили його зростають з кожною новою жертвою, їх життєва енергія акумулюється в ньому, наділяючи його неймовірними здібностями. Ніхто не знає, що трапиться з тендітною рівновагою всесвітів, якщо Габрієль досягне своєї мети - знищити всіх двійників. Його мрія вже майже стає реальністю, коли на шляху Юло стає Гейб - поліцейський з Лос-Анджелеса ...



Рейтинг MPAA: R - особам до 17 років обов'язкова присутність батьків або дорослого опікуна
Вікова категорія: 16+


Тривалість: 01:27:17
Якість: AVC [OpenMatte - порівняння наповнення кадру зі звичайним блуреєм]
Відео:
кодек:
розмір кадру: 1024x576
бітрейт: 3128 кбіт/с

Аудіо # 1:
мова: українська
переклад: двоголосий закадровий
кодек: 2.0 [стерео, DVB-T2, 18 кГц]
бітрейт: 192 кбіт/с
примітка: назву озвучено як "Єдиний"

Аудіо # 2: /
мова: українська
переклад: багатоголосий закадровий | Так Треба Продакшн
кодек: 2.0
бітрейт: 192 кбіт/с

Аудіо # 3:
мова: українська
переклад: багатоголосий закадровий
кодек: 2.0
бітрейт: 192 кб/с

Аудіо # 4:
мова: українська
переклад: багатоголосий закадровий
кодек: 2.0
бітрейт: 192 кб/с

Аудіо # 5:
мова: англійська
переклад: оригінал
кодек: 5.1
бітрейт: 448 кбіт/с

Субтитри # 1:
мова: англійські
тип: програмні (м'які)
формат: *.srt

Збережено оригінальні розділи, як на Blu-ray
Info
Код:
Complete name               : The One [Open Matte] (2001) [4xUkr,Eng sub.Eng] AVC [Hurtom].
Format                      :
Format version              : Version 4
File size                   : 2.65 GiB
Duration                    : 1 h 27 min
Overall bit rate            : 4 344 kb/s
Movie name                  : Єдиний / Протистояння / The One [Open Matte] (2001) [4xUkr,Eng sub.Eng] AVC [Hurtom]
Encoded date                : UTC 2020-07-12 00:20:31
Writing application         : v48.0.0 ('Fortress Around Your Heart') 64-bit
Writing library             : libebml v1.4.0 + v1.6.0
Cover                       : Yes
Attachments                 : cover.jpg

Video
ID                          : 1
Format                      : AVC
Format/Info                 : Advanced Video Codec
Format profile              : [email protected]
Format settings             : CABAC / 14 Ref Frames
Format settings, CABAC      : Yes
Format settings, Reference  : 14 frames
Codec ID                    : V_MPEG4/ISO/AVC
Duration                    : 1 h 27 min
Bit rate                    : 3 128 kb/s
Width                       : 1 024 pixels
Height                      : 576 pixels
Display aspect ratio        : 16:9
Frame rate mode             : Constant
Frame rate                  : 23.976 (24000/1001) FPS
Color space                 : YUV
Chroma subsampling          : 4:2:0
Bit depth                   : 8 bits
Scan type                   : Progressive
Bits/(Pixel*Frame)          : 0.221
Stream size                 : 1.91 GiB (72%)
Title                       : Єдиний / Протистояння / The One (2001) AVC [-=DoMiNo=-]
Writing library             : core 157 r2935 545de2f
Encoding settings           : cabac=1 / ref=14 / deblock=1:-2:-2 / analyse=0x3:0x133 / me=umh / subme=11 / psy=1 / psy_rd=1.00:0.15 / mixed_ref=1 / me_range=48 / chroma_me=1 / trellis=2 / 8x8dct=1 / cqm=0 / deadzone=21,11 / fast_pskip=0 / chroma_qp_offset=-3 / threads=6 / lookahead_threads=1 / sliced_threads=0 / nr=0 / decimate=1 / interlaced=0 / bluray_compat=0 / constrained_intra=0 / bframes=9 / b_pyramid=2 / b_adapt=2 / b_bias=0 / direct=3 / weightb=1 / open_gop=0 / weightp=2 / keyint=250 / keyint_min=24 / scenecut=40 / intra_refresh=0 / rc_lookahead=250 / rc=2pass / mbtree=0 / bitrate=3128 / ratetol=1.0 / qcomp=0.70 / qpmin=0 / qpmax=69 / qpstep=4 / cplxblur=20.0 / qblur=0.5 / vbv_maxrate=50000 / vbv_bufsize=62500 / nal_hrd=none / filler=0 / ip_ratio=1.40 / pb_ratio=1.30 / aq=1:0.80
Language                    : English
Default                     : Yes
Forced                      : No

Audio #1
ID                          : 2
Format                      : AC-3
Format/Info                 : Audio Coding 3
Commercial name             : Dolby Digital
Codec ID                    : A_AC3
Duration                    : 1 h 27 min
Bit rate mode               : Constant
Bit rate                    : 192 kb/s
Channel(s)                  : 2 channels
Channel layout              : L R
Sampling rate               : 48.0 kHz
Frame rate                  : 31.250 FPS (1536 SPF)
Compression mode            : Lossy
Stream size                 : 120 MiB (4%)
Title                       : MVO [2+2], 2.0 [stereo] 192 Kbps
Language                    : Ukrainian
Service kind                : Complete Main
Default                     : Yes
Forced                      : Yes

Audio #2
ID                          : 3
Format                      : AC-3
Format/Info                 : Audio Coding 3
Commercial name             : Dolby Digital
Codec ID                    : A_AC3
Duration                    : 1 h 27 min
Bit rate mode               : Constant
Bit rate                    : 192 kb/s
Channel(s)                  : 2 channels
Channel layout              : L R
Sampling rate               : 48.0 kHz
Frame rate                  : 31.250 FPS (1536 SPF)
Compression mode            : Lossy
Stream size                 : 120 MiB (4%)
Title                       : MVO [TTP, Novyj, Ukraina], 2.0 192 Kbps
Language                    : Ukrainian
Service kind                : Complete Main
Default                     : No
Forced                      : No

Audio #3
ID                          : 4
Format                      : AC-3
Format/Info                 : Audio Coding 3
Commercial name             : Dolby Digital
Codec ID                    : A_AC3
Duration                    : 1 h 27 min
Bit rate mode               : Constant
Bit rate                    : 192 kb/s
Channel(s)                  : 2 channels
Channel layout              : L R
Sampling rate               : 48.0 kHz
Frame rate                  : 31.250 FPS (1536 SPF)
Compression mode            : Lossy
Stream size                 : 120 MiB (4%)
Title                       : MVO [ICTV], 2.0 192 Kbps
Language                    : Ukrainian
Service kind                : Complete Main
Default                     : No
Forced                      : No

Audio #4
ID                          : 5
Format                      : AC-3
Format/Info                 : Audio Coding 3
Commercial name             : Dolby Digital
Codec ID                    : A_AC3
Duration                    : 1 h 27 min
Bit rate mode               : Constant
Bit rate                    : 192 kb/s
Channel(s)                  : 2 channels
Channel layout              : L R
Sampling rate               : 48.0 kHz
Frame rate                  : 31.250 FPS (1536 SPF)
Compression mode            : Lossy
Stream size                 : 120 MiB (4%)
Title                       : MVO [TTP, AMC], 2.0 192 Kbps
Language                    : Ukrainian
Service kind                : Complete Main
Default                     : No
Forced                      : No

Audio #5
ID                          : 6
Format                      : AC-3
Format/Info                 : Audio Coding 3
Commercial name             : Dolby Digital
Codec ID                    : A_AC3
Duration                    : 1 h 27 min
Bit rate mode               : Constant
Bit rate                    : 448 kb/s
Channel(s)                  : 6 channels
Channel layout              : L R C LFE Ls Rs
Sampling rate               : 48.0 kHz
Frame rate                  : 31.250 FPS (1536 SPF)
Compression mode            : Lossy
Stream size                 : 280 MiB (10%)
Title                       : Original, 5.1 448 Kbps
Language                    : English
Service kind                : Complete Main
Default                     : No
Forced                      : No

Text
ID                          : 7
Format                      : UTF-8
Codec ID                    : S_TEXT/UTF8
Codec ID/Info               : UTF-8 Plain Text
Duration                    : 1 h 18 min
Bit rate                    : 31 b/s
Count of elements           : 561
Stream size                 : 18.0 KiB (0%)
Language                    : English
Default                     : No
Forced                      : No

Menu
00:00:00.000                : :Chapter 1
00:00:36.161                : :Chapter 2
00:11:15.216                : :Chapter 3
00:19:44.642                : :Chapter 4
00:30:01.091                : :Chapter 5
00:40:05.945                : :Chapter 6
00:49:59.330                : :Chapter 7
00:53:18.404                : :Chapter 8
01:02:15.941                : :Chapter 9
01:06:21.686                : :Chapter 10
01:14:16.369                : :Chapter 11
01:17:41.907                : :Chapter 12
01:20:43.714                : :Chapter 13




Джерело: &
Подяки за українські доріжки: xslim, igor911, Bohdan237, Arsenfpu, JACKUS, Merdif, kryk-v.ya., drop_plz; за постер подяка bilenkuyboy.

Історія релізу:
14.05.2014 початковий реліз
24.06.2019 реліз оновлено:
- замінено відеоряд на Open Matte
- замінено доріжку з Нового/України з псевдо-5.1 з старого запису на якіснішу з нового запису
- додано українські доріжки з ICTV та AMC

12.07.2020 реліз оновлено: додано українську стереодоріжку з 2+2


Срібний реліз (на рейтинг впливає 50% завантаженого)
 Трекер:    Зареєстрований   

Завантажити / скачати фільм українською



відео для новачків



 Зареєстрований:   2020-07-12 03:31
 Розмір:   2.65 GB 
 Оцінка фільму:   7.4/10 (Голосів: 44)
 ЗАЛИШАЙТЕСЬ ЯКОМОГА ДОВШЕ НА РОЗДАЧІ! ЗАВАНТАЖИВ САМ - ДАЙ ЗАВАНТАЖИТИ ІНШИМ!
   
MrRyanCooper 
VIP


З нами з: 24.08.12
Востаннє: 16.07.20
Повідомлень: 515

2016-02-05 23:50  
Дякую, класне. Хоч і фантастичне.
Стосовно постера: може й не моє діло, але в написі внизу останнє слово "він" скоріш за все зайве, адже в першому рядку вже воно вживається.

Anonymous 







2019-06-24 17:33  
Реліз оновлено:
- замінено відеоряд, тепер повнокадровий з Open Matte блурея;
- замінено доріжку з Нового/України з псевдо-5.1 з старого запису на якіснішу з нового запису;
- додано українські доріжки з ICTV та AMC

Anonymous 







2020-07-12 03:32  
Реліз оновлено: додано українську стереодоріжку з 2+2.
robotron005 
Відео Гуртом - фільмокрай
Відео Гуртом - фільмокрай


З нами з: 29.01.09
Востаннє: 10.08.20
Повідомлень: 3350

2020-07-12 12:09  
Anonymous написано:

Аудіо # 1 (2+2):
мова: українська
переклад: багатоголосий закадровий


двоголосий.

Ваш часовий пояс: GMT + 2 Години

Нова тема   Відповісти