Єдиний (Протистояння) / The One [Open Matte] (2001) 720p 4xUkr/Eng | Sub Eng

Нові коментарі

Нова тема   Відповісти
Автор Повідомлення
Anonymous 







2014-05-14 16:33  
Єдиний (Протистояння) / The One [Open Matte] (2001) 720p 4xUkr/Eng | Sub Eng



Жанр: фантастика, бойовик, трилер
Країна: США



Кінокомпанія: Revolution Studios, Hard Eight Pictures
Режисер: Джеймс Вонг / James Wong
Актори: Джет Лі / Jet Li, Джейсон Стетхем / Jason Statham, Карла Гуджіно, Делрой Ліндо, Джеймс Моррісон, Ділан Бруно, Річард Стейнметц, Стів Ренкін, Таккер Смоллвуд, Харріет Сенсом Харріс та інші

Сюжет:
Що робити, якщо твій світ валиться, коли в нього вторгається безжалісний прибулець з паралельних світів? Прагнучи стати надлюдиною, агент Міжпросторового Бюро Розслідувань Габріель Юло здійснює запаморочливе сафарі по паралельних світах, полюючи за своїми двійниками.
Сили його зростають з кожною новою жертвою, їх життєва енергія акумулюється в ньому, наділяючи його неймовірними здібностями. Ніхто не знає, що трапиться з тендітною рівновагою всесвітів, якщо Габрієль досягне своєї мети - знищити всіх двійників. Його мрія вже майже стає реальністю, коли на шляху Юло стає Гейб - поліцейський з Лос-Анджелеса ...



Рейтинг MPAA: R - особам до 17 років обов'язкова присутність батьків або дорослого опікуна
Вікова категорія: 16+


Тривалість: 01:27:17
Якість: 720p [OpenMatte - порівняння наповнення кадру зі звичайним блуреєм]
Відео:
кодек:
розмір кадру: 1280x720
бітрейт: 7571 кбіт/с

Аудіо # 1:
мова: українська
переклад: двоголосий закадровий
кодек: 2.0 [стерео, DVB-T2, 18 кГц]
бітрейт: 192 кбіт/с
примітка: назву озвучено як "Єдиний"

Аудіо # 2: /
мова: українська
переклад: багатоголосий закадровий | Так Треба Продакшн
кодек: 2.0
бітрейт: 192 кбіт/с

Аудіо # 3:
мова: українська
переклад: багатоголосий закадровий
кодек: 2.0
бітрейт: 192 кб/с

Аудіо # 4:
мова: українська
переклад: багатоголосий закадровий
кодек: 2.0
бітрейт: 192 кб/с

Аудіо # 5:
мова: англійська
переклад: оригінал
кодек: 5.1
бітрейт: 640 кбіт/с

Субтитри # 1:
мова: англійські
тип: програмні (м'які)
формат: *.srt

Збережено оригінальні розділи, як на Blu-ray
Info та log:
Код:
Complete name               : The One [Open Matte] (2001) [4xUkr,Eng sub.Eng] 720p [Hurtom].
Format                      :
Format version              : Version 4
File size                   : 5.48 GiB
Duration                    : 1 h 27 min
Overall bit rate            : 8 982 kb/s
Movie name                  : Протистояння / The One [Open Matte] (2001) [4xUkr,Eng sub.Eng] 720p [Hurtom]
Encoded date                : UTC 2020-07-11 23:52:28
Writing application         : v48.0.0 ('Fortress Around Your Heart') 64-bit
Writing library             : libebml v1.4.0 + v1.6.0
Cover                       : Yes
Attachments                 : cover.jpg

Video
ID                          : 1
Format                      : AVC
Format/Info                 : Advanced Video Codec
Format profile              : [email protected]
Format settings             : CABAC / 9 Ref Frames
Format settings, CABAC      : Yes
Format settings, Reference  : 9 frames
Codec ID                    : V_MPEG4/ISO/AVC
Duration                    : 1 h 27 min
Bit rate                    : 7 571 kb/s
Width                       : 1 280 pixels
Height                      : 720 pixels
Display aspect ratio        : 16:9
Frame rate mode             : Constant
Frame rate                  : 23.976 (24000/1001) FPS
Color space                 : YUV
Chroma subsampling          : 4:2:0
Bit depth                   : 8 bits
Scan type                   : Progressive
Bits/(Pixel*Frame)          : 0.343
Stream size                 : 4.62 GiB (84%)
Title                       : Протистояння / The One (2001) 720p [Open Matte, rip by -=DoMiNo=-]
Writing library             : core 157 r2935 545de2f
Encoding settings           : cabac=1 / ref=9 / deblock=1:-3:-3 / analyse=0x3:0x133 / me=umh / subme=11 / psy=1 / psy_rd=1.00:0.15 / mixed_ref=1 / me_range=48 / chroma_me=1 / trellis=2 / 8x8dct=1 / cqm=0 / deadzone=21,11 / fast_pskip=0 / chroma_qp_offset=-3 / threads=6 / lookahead_threads=1 / sliced_threads=0 / nr=0 / decimate=1 / interlaced=0 / bluray_compat=0 / constrained_intra=0 / bframes=8 / b_pyramid=2 / b_adapt=2 / b_bias=0 / direct=1 / weightb=1 / open_gop=0 / weightp=2 / keyint=250 / keyint_min=24 / scenecut=40 / intra_refresh=0 / rc_lookahead=180 / rc=crf / mbtree=0 / crf=18.0 / qcomp=0.60 / qpmin=10 / qpmax=69 / qpstep=4 / vbv_maxrate=50000 / vbv_bufsize=62500 / crf_max=0.0 / nal_hrd=none / filler=0 / ip_ratio=1.40 / pb_ratio=1.30 / aq=1:0.80
Language                    : English
Default                     : Yes
Forced                      : No

Audio #1
ID                          : 2
Format                      : AC-3
Format/Info                 : Audio Coding 3
Commercial name             : Dolby Digital
Codec ID                    : A_AC3
Duration                    : 1 h 27 min
Bit rate mode               : Constant
Bit rate                    : 192 kb/s
Channel(s)                  : 2 channels
Channel layout              : L R
Sampling rate               : 48.0 kHz
Frame rate                  : 31.250 FPS (1536 SPF)
Compression mode            : Lossy
Stream size                 : 120 MiB (2%)
Title                       : MVO [2+2], 2.0 [stereo] 192 Kbps
Language                    : Ukrainian
Service kind                : Complete Main
Default                     : Yes
Forced                      : Yes

Audio #2
ID                          : 3
Format                      : AC-3
Format/Info                 : Audio Coding 3
Commercial name             : Dolby Digital
Codec ID                    : A_AC3
Duration                    : 1 h 27 min
Bit rate mode               : Constant
Bit rate                    : 192 kb/s
Channel(s)                  : 2 channels
Channel layout              : L R
Sampling rate               : 48.0 kHz
Frame rate                  : 31.250 FPS (1536 SPF)
Compression mode            : Lossy
Stream size                 : 120 MiB (2%)
Title                       : MVO [TTP, Novyj, Ukraina], 2.0 192 Kbps
Language                    : Ukrainian
Service kind                : Complete Main
Default                     : No
Forced                      : No

Audio #3
ID                          : 4
Format                      : AC-3
Format/Info                 : Audio Coding 3
Commercial name             : Dolby Digital
Codec ID                    : A_AC3
Duration                    : 1 h 27 min
Bit rate mode               : Constant
Bit rate                    : 192 kb/s
Channel(s)                  : 2 channels
Channel layout              : L R
Sampling rate               : 48.0 kHz
Frame rate                  : 31.250 FPS (1536 SPF)
Compression mode            : Lossy
Stream size                 : 120 MiB (2%)
Title                       : MVO [ICTV], 2.0 192 Kbps
Language                    : Ukrainian
Service kind                : Complete Main
Default                     : No
Forced                      : No

Audio #4
ID                          : 5
Format                      : AC-3
Format/Info                 : Audio Coding 3
Commercial name             : Dolby Digital
Codec ID                    : A_AC3
Duration                    : 1 h 27 min
Bit rate mode               : Constant
Bit rate                    : 192 kb/s
Channel(s)                  : 2 channels
Channel layout              : L R
Sampling rate               : 48.0 kHz
Frame rate                  : 31.250 FPS (1536 SPF)
Compression mode            : Lossy
Stream size                 : 120 MiB (2%)
Title                       : MVO [TTP, AMC], 2.0 192 Kbps
Language                    : Ukrainian
Service kind                : Complete Main
Default                     : No
Forced                      : No

Audio #5
ID                          : 6
Format                      : AC-3
Format/Info                 : Audio Coding 3
Commercial name             : Dolby Digital
Codec ID                    : A_AC3
Duration                    : 1 h 27 min
Bit rate mode               : Constant
Bit rate                    : 640 kb/s
Channel(s)                  : 6 channels
Channel layout              : L R C LFE Ls Rs
Sampling rate               : 48.0 kHz
Frame rate                  : 31.250 FPS (1536 SPF)
Compression mode            : Lossy
Stream size                 : 400 MiB (7%)
Title                       : Original, 5.1 640 Kbps
Language                    : English
Service kind                : Complete Main
Default                     : No
Forced                      : No

Text
ID                          : 7
Format                      : UTF-8
Codec ID                    : S_TEXT/UTF8
Codec ID/Info               : UTF-8 Plain Text
Duration                    : 1 h 18 min
Bit rate                    : 31 b/s
Count of elements           : 561
Stream size                 : 18.0 KiB (0%)
Language                    : English
Default                     : No
Forced                      : No

Menu
00:00:00.000                : :Chapter 1
00:00:36.161                : :Chapter 2
00:11:15.216                : :Chapter 3
00:19:44.642                : :Chapter 4
00:30:01.091                : :Chapter 5
00:40:05.945                : :Chapter 6
00:49:59.330                : :Chapter 7
00:53:18.404                : :Chapter 8
01:02:15.941                : :Chapter 9
01:06:21.686                : :Chapter 10
01:14:16.369                : :Chapter 11
01:17:41.907                : :Chapter 12
01:20:43.714                : :Chapter 13


Код:
info: frame I:1236 Avg QP:17.44 size:126300
info: frame P:27726 Avg QP:18.17 size: 62271
info: frame B:96603 Avg QP:19.71 size: 31817
info: consecutive B-frames: 2.3% 3.5% 7.7% 23.5% 13.0% 37.4% 8.7% 2.4% 1.4%


Джерело: &
Подяки за українські доріжки: xslim, igor911, Bohdan237, Arsenfpu, JACKUS, Merdif, kryk-v.ya., drop_plz; за постер подяка bilenkuyboy.

Історія релізу:
14.05.2014 початковий реліз
24.06.2019 реліз оновлено:
- замінено відеоряд на повнокадровий з Open Matte блурея;
- замінено доріжку з Нового/України з псевдо-5.1 з старого запису на якіснішу з нового запису;
- додано українські доріжки з ICTV та AMC;
- замінено оригінальну доріжку з на .
Для порівняння скріншоти з попереднього ріпу від CRiSC:

12.07.2020 реліз оновлено: додано українську стереодоріжку з 2+2


Срібний реліз (на рейтинг впливає 50% завантаженого)
 Трекер:    Зареєстрований   

Завантажити / скачати фільм українською



відео для новачків



 Зареєстрований:   2020-07-12 03:13
 Розмір:   5.48 GB 
 Оцінка фільму:   6.7/10 (Голосів: 35)
 ЗАЛИШАЙТЕСЬ ЯКОМОГА ДОВШЕ НА РОЗДАЧІ! ЗАВАНТАЖИВ САМ - ДАЙ ЗАВАНТАЖИТИ ІНШИМ!
   
Anonymous 







2019-06-24 18:30  
Реліз оновлено:
- замінено відеоряд на повнокадровий з Open Matte блурея;
- замінено доріжку з Нового/України з псевдо-5.1 з старого запису на якіснішу з нового запису;
- додано українські доріжки з ICTV та AMC;
- замінено оригінальну доріжку з на

Nahalist 
VIP


З нами з: 13.12.13
Востаннє: 20.10.20
Повідомлень: 305

2019-06-29 12:39  
дякую за обнову, гарно постаралися, колись давно дивився на DVD, зараз передивлюсь HD.
P.S. Стетем тут ще не лисий Happy

Стариків Петро 
Новенький


З нами з: 10.07.15
Востаннє: 17.10.20
Повідомлень: 1

2020-05-31 16:26  
На DVD?Понтами було DVD в ту епоху.Доводилось задовальнятись відеокасетою,і то не своєю
Anonymous 







2020-07-12 03:14  
Реліз оновлено: додано українську стереодоріжку з 2+2
Ваш часовий пояс: GMT + 2 Години

Нова тема   Відповісти