Карантин / Quarantine (2008) Eng | sub Ukr/Eng

Нові коментарі

Нова тема   Відповісти
Автор Повідомлення
TheDarkKnight08 
Свій


З нами з: 06.10.13
Востаннє: 17.08.15
Повідомлень: 56

2014-05-07 19:50  
Карантин / Quarantine (2008) Eng | sub Ukr/Eng

Карантин / Quarantine (2008) Eng | sub Ukr/Eng


Постер bilenkuyboy


Жанр: псевдо документальний фільм, жахи, трилер
Країна: США



Кінокомпанія: Vertigo Entertainment, Andale Pictures, Filmax Entertainment / Screen Gems
Режисер: Джон Ерік Даудел
Актори: Грег Джерманн, Бернард Уайт, Данія Рамірез, Джей Ернандес, Ендрю Фісцелла, Стів Харріс, Раді Шербеджія, Джонатон Шек, Коламбус Шорт, Дженніфер Карпентер

Сюжет:
Фільм є рімейком оригінального іспанського фільму.
Знімальна група телерепортерів, що працюють на місцевий канал новин, відправляються, всім складом, на місце де сталося, на перший погляд, абсолютно неабияка й навіть можна сказати буденна пригода. Але після прибуття вони розуміють, що в результаті отримали репортаж, який вони не захотіли б побачити навіть у своїх найстрашніших, нічних кошмарах! Завдяки жахливого збігом, ця група молодих людей, виявляється абсолютно ізольованою від зовнішнього світу, в закритому будинку, мешканці якого, до всього того ж, ще й заражені страшним смертельним вірусом ...


Тривалість: 01:29:15
Якість:
Відео:
кодек:
розмір кадру: 720 x 384
бітрейт: 1944 кб/с

Аудіо:
мова: англійська
переклад: оригінал
кодек: 5.1
бітрейт: 384 кб/с

Субтитри:
мова: українська
тип: програмні (м'які)
формат: *.srt

Субтитри:
мова: англійська
тип: програмні (м'які)
формат: *.srt
Info
Код:
General
Complete name               : Quarantine (2008) Hurtom Eng, sub Ukr.avi
Format                      : AVI
Format/Info                 : Audio Video Interleave
File size                   : 1.46 GiB
Duration                    : 1 h 29 min
Overall bit rate            : 2 337 kb/s
Movie name                  : Карантин / Quarantine (2008)
Director                    : SENATOR ( 1080)
Writing application         : VirtualDubMod 1.5.10.3 (build 2550/release)
Writing library             : VirtualDubMod build 2550/release
Copyright                   : HQ-ViDEO (www.hq-video.ru)
Comment                     : 27.02.2009

Video
ID                          : 0
Format                      : MPEG-4 Visual
Format profile              : Advanced [email protected]
Format settings             : BVOP2
Format settings, BVOP       : 2
Format settings, QPel       : No
Format settings, GMC        : No warppoints
Format settings, Matrix     : Default (MPEG)
Codec ID                    :
Codec ID/Hint               :
Duration                    : 1 h 29 min
Bit rate                    : 1 944 kb/s
Width                       : 720 pixels
Height                      : 384 pixels
Display aspect ratio        : 1.85:1
Original display aspect rat : 1.85:1
Frame rate                  : 23.976 (24000/1001) FPS
Color space                 : YUV
Chroma subsampling          : 4:2:0
Bit depth                   : 8 bits
Scan type                   : Progressive
Compression mode            : Lossy
Bits/(Pixel*Frame)          : 0.293
Stream size                 : 1.21 GiB (83%)
Writing library             : 1.2.1 (UTC 2008-12-04)

Audio
ID                          : 1
Format                      : AC-3
Format/Info                 : Audio Coding 3
Commercial name             : Dolby Digital
Codec ID                    : 2000
Duration                    : 1 h 29 min
Bit rate mode               : Constant
Bit rate                    : 384 kb/s
Channel(s)                  : 6 channels
Channel layout              : L R C LFE Ls Rs
Sampling rate               : 48.0 kHz
Frame rate                  : 31.250 FPS (1536 SPF)
Bit depth                   : 16 bits
Compression mode            : Lossy
Stream size                 : 245 MiB (16%)
Alignment                   : Split across interleaves
Interleave, duration        : 42  ms (1.00 video frame)
Interleave, preload duratio : 500  ms
Service kind                : Complete Main
Скріншоти




 Трекер:    Зареєстрований   

Завантажити / скачати фільм українською



відео для новачків



 Зареєстрований:   2014-05-08 20:45
 Розмір:   1.46 GB 
 Оцінка фільму:   10/10 (Голосів: 4)
 Велике прохання не тікати з роздачі
   
Інші релізи
   Карантин / Quarantine (2008) 1080p Ukr/Eng | Sub Ukr/Eng Вояка Schweik  0 / 0   7.06 GB   2020-07-14 19:24 
   Карантин / Quarantine (2008) AVC Ukr/Eng | Sub Ukr/Eng Вояка Schweik  4 / 0   1.48 GB   2020-07-13 19:45 
   Карантин / Quarantine (2008) 1080p Eng | Sub Ukr/Eng Timm  1 / 0   7.94 GB   2020-04-03 17:39 
Thebest054 
Частий відвідувач


З нами з: 20.05.13
Востаннє: 15.03.20
Повідомлень: 49

2014-05-07 21:06  
Треба буде подивитися
bot 
робот


З нами з: 30.09.07
Востаннє: 26.05.05
Повідомлень: 26349

2014-05-08 20:45  
Тему перенесено з Анонси релізів до форуму Фільми


TheDarkKnight08

daVisla 
VIP


З нами з: 24.11.09
Востаннє: 15.11.20
Повідомлень: 261

2014-05-08 23:32  
Варто додати в жанр: "мок"юментарі", зважаючи що це основний жанр, і лише потім жах, трилер...
kino. 
Модератор відео


З нами з: 27.06.10
Востаннє: 24.11.20
Повідомлень: 2906

2014-05-09 06:43  
TheDarkKnight08 написано:
розмір кадру: 720 x 384

скріншшоти 720 x 390

Едм 
VIP


З нами з: 18.05.08
Востаннє: 17.11.20
Повідомлень: 1253

2014-05-09 20:42  
Рімейк іспанського фільму [rec]?
BOOGud 
VIP


З нами з: 06.03.12
Востаннє: 31.10.20
Повідомлень: 905

2014-05-09 22:16  
Едм написано:
Рімейк іспанського фільму [rec]?

то є так,

оригінал звісно в рази кращий, але й цей, так би мовити, мордою в болото не бехнувся

GNIL 
Новенький


З нами з: 20.05.17
Востаннє: 03.11.19
Повідомлень: 20

2019-07-20 07:30  
Хто небудь роздайте трохи бо неможу скачати.
Ваш часовий пояс: GMT + 2 Години

Нова тема   Відповісти