Крижане серце / Frozen (2013) 720p-mini

Нові коментарі

Нова тема   Відповісти
Автор Повідомлення
Drool 
VIP


З нами з: 17.04.10
Востаннє: 18.08.17
Повідомлень: 1368

2014-04-30 16:13  
Крижане серце / Frozen (2013) 720p-mini

Жанр: анімація, пригодницький, комедія
Країна: США



Кінокомпанія: Walt Disney Animation Studios, Walt Disney Pictures
Режисер: Кріс Бак, Дженніфер Лі
Актори: Крістен Белл, Ідіна Мензел, Джонатан Ґрофф, Джош Ґад, Сантіно Фонтана, Алан Тьюдік, Кіаран Гайндс, Кріс Вільямс, Стівен Джей Андерсон, Мая Вілсон

Сюжет:
Коли стародавнє пророцтво здійснюється і королівство занурюється в обійми вічної зими, троє безстрашних героїв - принцеса Анна, відважний Крістофф і його вірний олень Свен - відправляються в гори, щоб знайти сестру Анни, Ельзу, яка може зняти з країни закляття. По дорозі їх чекає безліч захоплюючих сюрпризів і захоплюючих пригод. Анні і Крістоффу належить об'єднатися і протистояти могутньої стихії, щоб врятувати королівство і тих, хто їм дорогий...


Тривалість: 01:42:13
Якість: 720p-mini
Відео:
кодек:
розмір кадру: 1280x570
бітрейт: 2638 кб/с

Аудіо:
мова: українська
переклад: професійний дубльований
кодек: 5.1
бітрейт: 384 кб/с

Джерело озвучення:

Субтитри:
мова: українська (форсовані - написи)
тип: програмні (м'які)
формат: *.srt
Info
General
Unique ID : 27311056259783070788499206793911460603 (0x148BEB0904A58FB976AF628B6B1DE2FB)
Complete name : /mnt/disk_d/Video/Frozen.2013.Ukr.Dub..720p-mini.UAGet.
Format :
Format version : Version 2
File size : 2.16 GiB
Duration : 1h 42mn
Overall bit rate : 3 026 Kbps
Writing application : HandBrake rev0
Writing library : libmkv 0.6.5
TITLE : Крижане серце / Frozen (2013) 720p-mini -=UAGet=-
ARTIST : Крістен Белл, Ідіна Мензел, Джонатан Ґрофф, Джош Ґад, Сантіно Фонтана, Алан Тьюд
DIRECTOR : Кріс Бак, Дженніфер Лі
DATE_RELEASED : 2013
GENRE : анімація, пригодницький, комедія
SYNOPSIS : Коли стародавнє пророцтво здійснюється і королівство занурюється в обійми вічної зими, троє безстрашних героїв - принцеса Анна, відважний Крістофф і його вірний олень Свен - відправляються в гори, щоб знайти сестру Анни, Ельзу, яка може зняти з країни закляття. По дорозі їх чекає безліч захоплюючих сюрпризів і захоплюючих пригод. Анні і Крістоффу належить об'єднатися і протистояти могутньої стихії, щоб врятувати королівство і тих, хто їм дорогий...

Video
ID : 1
Format : AVC
Format/Info : Advanced Video Codec
Format profile : [email protected]
Format settings, CABAC : Yes
Format settings, ReFrames : 7 frames
Codec ID : V_MPEG4/ISO/AVC
Duration : 1h 42mn
Bit rate : 2 638 Kbps
Width : 1 280 pixels
Height : 570 pixels
Display aspect ratio : 2.25:1
Frame rate : 23.976 fps
Color space : YUV
Chroma subsampling : 4:2:0
Bit depth : 8 bits
Scan type : Progressive
Bits/(Pixel*Frame) : 0.151
Stream size : 1.84 GiB (85%)
Writing library : core 142 r2389 956c8d8
Encoding settings : cabac=1 / ref=8 / deblock=1:-3:-3 / analyse=0x3:0x133 / me=umh / subme=9 / psy=1 / psy_rd=1,00:0,10 / mixed_ref=1 / me_range=32 / chroma_me=1 / trellis=2 / 8x8dct=1 / cqm=0 / deadzone=21,11 / fast_pskip=0 / chroma_qp_offset=-3 / threads=6 / lookahead_threads=1 / sliced_threads=0 / nr=0 / decimate=1 / interlaced=0 / bluray_compat=0 / constrained_intra=0 / bframes=8 / b_pyramid=1 / b_adapt=2 / b_bias=0 / direct=3 / weightb=1 / open_gop=0 / weightp=2 / keyint=240 / keyint_min=24 / scenecut=40 / intra_refresh=0 / rc=2pass / mbtree=0 / bitrate=2638 / ratetol=1,0 / qcomp=1,00 / qpmin=0 / qpmax=69 / qpstep=4 / cplxblur=20,0 / qblur=0,5 / ip_ratio=1,40 / pb_ratio=1,30 / aq=0
Language : English
Default : Yes
Forced : No
Color primaries : BT.709-5, BT.1361, IEC 61966-2-4, SMPTE RP177
Transfer characteristics : BT.709-5, BT.1361
Matrix coefficients : BT.709-5, BT.1361, IEC 61966-2-4 709, SMPTE RP177

Audio
ID : 2
Format : AC-3
Format/Info : Audio Coding 3
Mode extension : CM (complete main)
Codec ID : A_AC3
Duration : 1h 42mn
Bit rate mode : Constant
Bit rate : 384 Kbps
Channel(s) : 6 channels
Channel positions : Front: L C R, Side: L R, LFE
Sampling rate : 48.0 KHz
Bit depth : 16 bits
Compression mode : Lossy
Stream size : 281 MiB (13%)
Default : Yes
Forced : No

Text
ID : 3
Format : UTF-8
Codec ID : S_TEXT/UTF8
Codec ID/Info : UTF-8 Plain Text
Default : Yes
Forced : No
Скріншоти




Реліз від:
Особиста оцінка: 10 - без зайвих вагань рекомендую всім!
Величезна подяка за звукову доріжку та форсовані саби пану 11FrYkT


 Трекер:    Зареєстрований   

Завантажити / скачати мультфільм українською



відео для новачків



 Зареєстрований:   2014-05-05 16:48
 Розмір:   2.16 GB 
 Оцінка мультфільму:   10/10 (Голосів: 54)
   
Інші релізи
   Крижане серце / Frozen (2013) 1080p [48 fps] Ukr/Eng | Sub Eng/Fra/Esp smsfdg  9 / 0   27.59 GB   2014-08-30 20:41 
   Крижане серце / Frozen (2013) 720p-mini [60fps] Drool  15 / 0   4.35 GB   2014-08-20 15:44 
   Закрижаніла / Крижане серце / Frozen (2013) 720p Eng | Sub Ukr Gedet  7 / 0   2.47 GB   2014-07-28 19:20 
   Крижане серце / Frozen (2013) Remux 1080p Ukr/Eng | Sub Eng/Fr/Es smsfdg  3 / 4   20.41 GB   2014-07-19 21:16 
   Крижане серце / Frozen (2013) AVC BASTERD-94  13 / 0   978 MB   2014-07-07 21:30 
   Крижане серце / Frozen (2013) 1080p 3D SideBySide Ukr/Eng | Sub Eng dinosaurus  6 / 0   5.96 GB   2014-06-15 16:06 
   Крижане серце / Frozen (2013) 1080p Ukr/Eng | Sub Eng 11FrYkT  28 / 0   8.01 GB   2014-04-30 10:02 
   Крижане серце / Frozen (2013) 720p Ukr/Eng | Sub Eng 11FrYkT  23 / 0   4.05 GB   2014-04-30 08:30 
   Крижане серце / Frozen (2013) Ukr/Eng | Sub Ukr/Eng Gelios  157 / 1   1.45 GB   2014-04-29 23:12 
   Крижане серце / Frozen (2013) AVC Ukr/Eng | Sub Eng 11FrYkT  15 / 0   2.14 GB   2014-04-29 23:09 
bot 
робот


З нами з: 30.09.07
Востаннє: 26.05.05
Повідомлень: 17365

2014-04-30 16:13  
Тему перенесено з Мультфільми в HD до форуму Анонси релізів


Drool

Drool 
VIP


З нами з: 17.04.10
Востаннє: 18.08.17
Повідомлень: 1368

2014-04-30 16:14  
Блюр качається на роботі. В понеділок-вівторок вранці буде реліз.
НТН 
Відео Гуртом - фільмокрай
Відео Гуртом - фільмокрай


З нами з: 25.12.11
Востаннє: 20.07.17
Повідомлень: 2170

2014-04-30 17:16  
Лого itunes приберіть
Drool 
VIP


З нами з: 17.04.10
Востаннє: 18.08.17
Повідомлень: 1368

2014-04-30 21:29  
НТН написано:
Лого itunes приберіть

Чому? Звук звідтам.

kino. 
Модератор відео


З нами з: 27.06.10
Востаннє: 18.08.17
Повідомлень: 2897

2014-04-30 21:41  
Тоді це приберіть
Джерело озвучення:

Drool 
VIP


З нами з: 17.04.10
Востаннє: 18.08.17
Повідомлень: 1368

2014-04-30 22:03  
Ой... Перебдів...
bot 
робот


З нами з: 30.09.07
Востаннє: 26.05.05
Повідомлень: 17365

2014-05-05 16:48  
Тему перенесено з Анонси релізів до форуму Мультфільми в HD


Drool

Mr_Cepgoc 
Новенький


З нами з: 14.12.14
Востаннє: 20.12.14
Повідомлень: 5

2014-12-16 04:20  
Обов'язково перегляну.
Ваш часовий пояс: GMT + 2 Години

Нова тема   Відповісти