Ця незручна мить / That Awkward Moment (2014) AVC 2xUkr/Eng | Sub Eng

Нові коментарі

Нова тема   Відповісти
Автор Повідомлення
Anonymous 







2014-04-28 20:23  
Ця незручна мить / That Awkward Moment (2014) AVC 2xUkr/Eng | Sub Eng


Жанр: комедія, романтичний
Країна: США



Кінокомпанія: Treehouse Pictures, Aversano Films, What If It Barks Films
Режисер: Том Ґормікан / Tom Gormican
Актори: Зак Ефрон / Zac Efron, Майлз Теллер / Miles Teller, Майкл Б. Джордан / Michael B. Jordan, Імоджен Путс / Imogen Poots, Джесіка Лукас / Jessica Lucas, Лола Ґлаудіні / Lola Glaudini та інші

Сюжет:
Джейсон, Деніел і Майкл - типові мешканці Мангеттена, красиві дотепні хлопці. Після того, як одного з них кидає дівчина, вони клянуться більше ніколи не заводити серйозних стосунків. Але дуже скоро, після купи «незручних моментів», вони зустрічають справжнє кохання. І як тепер бути з дружньою угодою?


Тривалість: 01:34:30
Якість: AVC
Відео:
кодек:
розмір кадру: 1024x426
бітрейт: 1 360 кб/с

Аудіо # 1:
мова: українська
переклад: багатоголосий закадровий
кодек: 2.0
бітрейт: 192 кб/с

Аудіо # 2:
мова: українська
переклад: багатоголосий закадровий
кодек: 2.0
бітрейт: 192 кб/с

Аудіо # 3:
мова: англійська
переклад: оригінал
кодек: 5.1
бітрейт: 384 кб/с

Субтитри # 1 (Повні):
мова: англійська
тип: програмні (м'які)
формат: *.srt

Субтитри # 2 (Повні, для людей з вадами слуху):
мова: англійська
тип: програмні (м'які)
формат: *.srt
Info
General
Unique ID : 88443758246868378773269005752050666445 (0x4289A5F311807A86A967B195E2B84BCD)
Complete name : D:\That Awkward Moment (2014) AVC [2xUKR_ENG] [Hurtom].
Format :
Format version : Version 4 / Version 2
File size : 1.45 GiB
Duration : 1 h 34 min
Overall bit rate : 2 196 kb/s
Movie name : Ця незручна мить / That Awkward Moment (2014)
Encoded date : UTC 2021-04-08 14:01:25
Writing application : v51.0.0 ('I Wish') 32-bit
Writing library : libebml v1.4.0 + v1.6.2
Cover : Yes
Attachments : cover.jpg

Video
ID : 1
Format : AVC
Format/Info : Advanced Video Codec
Format profile : [email protected]
Format settings, CABAC : Yes
Format settings, RefFrames : 10 frames
Codec ID : V_MPEG4/ISO/AVC
Duration : 1 h 34 min
Bit rate : 1 360 kb/s
Width : 1 024 pixels
Height : 426 pixels
Display aspect ratio : 2.40:1
Frame rate mode : Constant
Frame rate : 23.976 (24000/1001) FPS
Color space : YUV
Chroma subsampling : 4:2:0
Bit depth : 8 bits
Scan type : Progressive
Bits/(Pixel*Frame) : 0.130
Stream size : 920 MiB (62%)
Writing library : core 142 r2431+42 c69a006 tMod [[email protected]:2:0 X86_64]
Encoding settings : cabac=1 / ref=10 / deblock=1:-3:-3 / analyse=0x3:0x113 / me=umh / subme=11 / psy=1 / fade_compensate=0.00 / psy_rd=1.00:0.20 / mixed_ref=1 / me_range=32 / chroma_me=1 / trellis=2 / 8x8dct=1 / cqm=0 / deadzone=21,11 / fast_pskip=0 / chroma_qp_offset=-3 / threads=12 / lookahead_threads=3 / sliced_threads=0 / nr=0 / decimate=0 / interlaced=0 / bluray_compat=0 / constrained_intra=0 / fgo=0 / bframes=14 / b_pyramid=2 / b_adapt=2 / b_bias=0 / direct=3 / weightb=1 / open_gop=0 / weightp=2 / keyint=240 / keyint_min=23 / scenecut=40 / intra_refresh=0 / rc=2pass / mbtree=0 / bitrate=1360 / ratetol=1.0 / qcomp=0.60 / qpmin=0:0:0 / qpmax=69:69:69 / qpstep=4 / cplxblur=20.0 / qblur=0.5 / ip_ratio=1.40 / pb_ratio=1.30 / aq=4:0.80 / aq-sensitivity=10.00 / aq-factor=1.00:1.00:1.00 / aq2=0 / aq3=0
Language : English
Default : Yes
Forced : Yes

Audio #1
ID : 2
Format : AC-3
Format/Info : Audio Coding 3
Format settings, Endianness : Big
Codec ID : A_AC3
Duration : 1 h 34 min
Bit rate mode : Constant
Bit rate : 192 kb/s
Channel(s) : 2 channels
Channel positions : Front: L R
Sampling rate : 48.0 kHz
Frame rate : 31.250 FPS (1536 SPF)
Bit depth : 16 bits
Compression mode : Lossy
Stream size : 130 MiB (9%)
Title : MVO [LineIn]
Language : Ukrainian
Service kind : Complete Main
Default : Yes
Forced : Yes

Audio #2
ID : 3
Format : AC-3
Format/Info : Audio Coding 3
Format settings, Endianness : Big
Codec ID : A_AC3
Duration : 1 h 34 min
Bit rate mode : Constant
Bit rate : 192 kb/s
Channel(s) : 2 channels
Channel positions : Front: L R
Sampling rate : 48.0 kHz
Frame rate : 31.250 FPS (1536 SPF)
Bit depth : 16 bits
Compression mode : Lossy
Stream size : 130 MiB (9%)
Title : MVO [K1]
Language : Ukrainian
Service kind : Complete Main
Default : No
Forced : No

Audio #3
ID : 4
Format : AC-3
Format/Info : Audio Coding 3
Format settings, Endianness : Big
Codec ID : A_AC3
Duration : 1 h 34 min
Bit rate mode : Constant
Bit rate : 448 kb/s
Channel(s) : 6 channels
Channel positions : Front: L C R, Side: L R, LFE
Sampling rate : 48.0 kHz
Frame rate : 31.250 FPS (1536 SPF)
Bit depth : 16 bits
Compression mode : Lossy
Stream size : 303 MiB (20%)
Title : Original
Language : English
Service kind : Complete Main
Default : No
Forced : No

Text #1
ID : 5
Format : UTF-8
Codec ID : S_TEXT/UTF8
Codec ID/Info : UTF-8 Plain Text
Duration : 1 h 31 min
Bit rate : 88 b/s
Count of elements : 1764
Stream size : 59.3 KiB (0%)
Title : Full
Language : English
Default : No
Forced : No

Text #2
ID : 6
Format : UTF-8
Codec ID : S_TEXT/UTF8
Codec ID/Info : UTF-8 Plain Text
Duration : 1 h 31 min
Bit rate : 93 b/s
Count of elements : 2009
Stream size : 62.7 KiB (0%)
Title : Full (SDH)
Language : English
Default : No
Forced : No

Menu
00:00:00.000 : en:00:00:00.000
00:05:35.252 : en:00:05:35.252
00:11:40.658 : en:00:11:40.658
00:17:15.534 : en:00:17:15.534
00:23:20.649 : en:00:23:20.649
00:30:05.637 : en:00:30:05.637
00:36:32.607 : en:00:36:32.607
00:42:17.577 : en:00:42:17.577
00:49:23.127 : en:00:49:23.127
00:55:55.936 : en:00:55:55.936
01:02:36.211 : en:01:02:36.211
01:06:40.079 : en:01:06:40.079
01:09:56.734 : en:01:09:56.734
01:16:02.850 : en:01:16:02.850
01:22:59.349 : en:01:22:59.349
01:28:29.304 : en:01:28:29.304
Скріншоти
Джерело:
Звукозапис з ТБ: krigg070
Особиста оцінка: 0 - не дивився


 Трекер:    Зареєстрований   

Завантажити / скачати фільм українською



відео для новачків



 Зареєстрований:   2021-04-08 17:18
 Розмір:   1.45 GB 
 Оцінка фільму:   8/10 (Голосів: 27)
   
Інші релізи
trelxtrel 
VIP


З нами з: 15.12.10
Востаннє: 14.04.21
Повідомлень: 338

2014-05-03 23:12  
Не можна сказати, що фільм виділяється якоюсь оригінальністю чи цікавістю! Простенький, типовий, достатньо добротний фільм для одноразового перегляду!
eXteSy- 
VIP


З нами з: 06.04.09
Востаннє: 17.04.21
Повідомлень: 2313

2014-05-04 15:51  
Легенький фільм на один раз, просто розслабитися і ні про що не думати.
7/10

Але чому всі головні героїні такі страшні? Вкотре радію тому, що живу в Україні, і за 5 хв. на вулиці можна побачити більше чарівних дівчат, ніж в голлівудському фільмі.

S1S 
Свій


З нами з: 10.09.10
Востаннє: 16.04.21
Повідомлень: 77

2014-07-17 13:44  
Мені здається, що дівчата від цього фільму були б взахваті. І деякі моменти в фільмі є дуже смішні.
8/10.

Andrij1971 
Частий відвідувач


З нами з: 19.07.14
Востаннє: 17.04.21
Повідомлень: 33

2016-12-06 21:07  
в мене чомусь цей формат не відкриває ТВ хоча аналогічні відкриває без проблем
Ваш часовий пояс: GMT + 2 Години

Нова тема   Відповісти