Друзі [Бонуси 2012, як знімали "Друзів"] / Friends (1994-2004) 720p Ukr/Eng | Sub Ukr/Eng

Нові коментарі

Нова тема   Відповісти
Автор Повідомлення
BOOGud 
VIP


З нами з: 06.03.12
Востаннє: 23.07.17
Повідомлень: 907

2014-04-23 23:00  
Друзі [Бонуси 2012, як знімали "Друзів"] / Friends (1994-2004) 720p Ukr/Eng | Sub Ukr/Eng

Друзі [Бонуси 2012, як знімали "Друзів"] / Friends (1994-2004) 720p Ukr/Eng | Sub Ukr/Eng


Жанр: комедія, документальний
Країна: США

Режисер: Девід Крейн та Марта Кауфман
Актори: Девід Крейн, Марта Кауфман, Дженніфер Еністон, Кортні Кокс, Ліза Кудроу, Метт Леблан, Метью Перрі, Девід Швіммер

Сюжет:
Відео із творцями культового серіалу "Друзі". Тут описана вся історія серіалу від його зародження і до останнього епізоду. Також у цих відео ми побачимо й кілька акторів, що знімались у серіалі.


Тривалість:
«Friends From the Start» - 00:27:50
«When Friends become Family» - 00:29:20
«The Legacy of Friends» - 00:10:46

Якість:
Відео:
кодек:
розмір кадру: 1 280 x 720
бітрейт: 927 кб/с

Аудіо # 1:
мова: українська
переклад: двоголосий закадровий | UAVocie
кодек: 2.0
бітрейт: 192 кб/с

Переклад з англійської : Ірина Ковтун
Озвучення: Людмила Швець та Дмитро Урсуляк
Монтаж та робота зі звуком: BOOGud.

Відео та ініціатива: smak2001

Аудіо # 2:
мова: англійська
переклад: оригінал
кодек: 2.0
бітрейт: 192 кб/с

Субтитри:
мова: українська | Ірина Ковтун
тип: програмні (м'які)
формат: *.srt

Субтитри:
мова: англійська
тип: програмні (м'які)
формат: *.srt
Скріншоти






















































Info

General
Unique ID : 236657077074142920067659280598600422561 (0xB20A7EC0C33E9F81B9D6209C9B0E94A1)
Complete name : J:\!!!!!Dvd\!2060\Friends.About.Bonus.[2012].[HD720p].[Ukr.Eng].[UAVocie]\Bonus.Disc1.Friends.From.the.Start.
Format :
Format version : Version 4 / Version 2
File size : 267 MiB
Duration : 27mn 53s
Overall bit rate : 1 338 Kbps
Encoded date : UTC 2014-04-14 17:52:20
Writing application : mkvmerge v6.8.0 ('Theme for Great Cities') 32bit built on Mar 2 2014 21:27:07
Writing library : libebml v1.3.0 + libmatroska v1.4.1

Video
ID : 1
Format : AVC
Format/Info : Advanced Video Codec
Format profile : [email protected]
Format settings, CABAC : Yes
Format settings, ReFrames : 5 frames
Codec ID : V_MPEG4/ISO/AVC
Duration : 27mn 53s
Bit rate : 927 Kbps
Width : 1 280 pixels
Height : 720 pixels
Display aspect ratio : 16:9
Frame rate mode : Constant
Frame rate : 23.976 fps
Color space : YUV
Chroma subsampling : 4:2:0
Bit depth : 8 bits
Scan type : Progressive
Bits/(Pixel*Frame) : 0.042
Stream size : 185 MiB (69%)
Writing library : core 130 r2273 b3065e6
Encoding settings : cabac=1 / ref=5 / deblock=1:-3:-3 / analyse=0x3:0x133 / me=umh / subme=11 / psy=1 / psy_rd=1.00:0.00 / mixed_ref=1 / me_range=32 / chroma_me=1 / trellis=2 / 8x8dct=1 / cqm=0 / deadzone=21,11 / fast_pskip=0 / chroma_qp_offset=-2 / threads=12 / lookahead_threads=1 / sliced_threads=0 / nr=0 / decimate=1 / interlaced=0 / bluray_compat=0 / constrained_intra=0 / bframes=6 / b_pyramid=2 / b_adapt=2 / b_bias=0 / direct=3 / weightb=1 / open_gop=0 / weightp=2 / keyint=240 / keyint_min=24 / scenecut=40 / intra_refresh=0 / rc_lookahead=180 / rc=crf / mbtree=1 / crf=25.0 / qcomp=0.58 / qpmin=0 / qpmax=69 / qpstep=4 / ip_ratio=1.40 / aq=1:1.00
Language : English
Default : Yes
Forced : No
Color primaries : BT.709
Transfer characteristics : BT.709
Matrix coefficients : BT.709

Audio #1
ID : 2
Format : AC-3
Format/Info : Audio Coding 3
Mode extension : CM (complete main)
Format settings, Endianness : Big
Codec ID : A_AC3
Duration : 27mn 53s
Bit rate mode : Constant
Bit rate : 192 Kbps
Channel count : 2 channels
Channel positions : Front: L R
Sampling rate : 48.0 KHz
Bit depth : 16 bits
Compression mode : Lossy
Stream size : 38.3 MiB (14%)
Title : UKR[UAVoice][DVO]
Language : Ukrainian
Default : Yes
Forced : No

Audio #2
ID : 3
Format : AC-3
Format/Info : Audio Coding 3
Format profile : Dolby Digital
Mode extension : CM (complete main)
Format settings, Endianness : Big
Codec ID : A_AC3
Duration : 27mn 53s
Bit rate mode : Constant
Bit rate : 192 Kbps
Channel count : 2 channels
Channel positions : Front: L R
Sampling rate : 48.0 KHz
Bit depth : 16 bits
Compression mode : Lossy
Stream size : 38.3 MiB (14%)
Title : ENG
Language : English
Default : No
Forced : No

Text #1
ID : 4
Format : VobSub
Muxing mode : zlib
Codec ID : S_VOBSUB
Codec ID/Info : The same subtitle format used on DVDs
Title : eng
Language : English
Default : No
Forced : No

Text #2
ID : 5
Format : UTF-8
Codec ID : S_TEXT/UTF8
Codec ID/Info : UTF-8 Plain Text
Title : UKR[Irina_Kovtun]
Language : Ukrainian
Default : No
Forced : No
Джерело: toloka.to & uavoice.com
Особиста оцінка: 10 - без зайвих вагань рекомендую всім!


Авторський реліз (завантажувати можна без реєстрації)
 Трекер:    Зареєстрований   

Завантажити / скачати фільм українською



відео для новачків



 Зареєстрований:   2014-04-23 23:00
 Розмір:   642 MB 
 Оцінка фільму:   9.9/10 (Голосів: 35)
   
Forward! 
VIP


З нами з: 27.11.11
Востаннє: 17.10.17
Повідомлень: 452

2014-04-23 23:09  
ВЕЛИЧЕЗНЕ ДЯКУЮ!!!
Блін, до чого ж незвичний дубляж...

BOOGud 
VIP


З нами з: 06.03.12
Востаннє: 23.07.17
Повідомлень: 907

2014-04-23 23:46  
Forward! написано:
Блін, до чого ж незвичний дубляж...


smak2001 написано:

У документалці йдуть вставки з серіалу, між розмовами творців та акторів.
Зараз ці вставки також озвучені командою уавойс-а. Слухати трохи незвично.
Якщо хтось розпише з якої серії, які точно секунди потрібно вирізати; та вставити сюди, то я буду вдячний особисто. І спробую переробити.

Konfucius 
Управління
Управління


З нами з: 30.09.07
Востаннє: 17.10.17
Повідомлень: 4969

2014-04-24 23:25  
Бракує Info.
munipet 
Поважний учасник


З нами з: 14.04.11
Востаннє: 31.07.16
Повідомлень: 227

2014-04-25 08:11  
olmost like orgy they f..k one another stupid americans
alexcaptain 
Свій


З нами з: 20.03.14
Востаннє: 14.10.17
Повідомлень: 80

2014-08-07 17:50  
munipet
Russian films better Ha ?

Ваш часовий пояс: GMT + 2 Години

Нова тема   Відповісти