Альфа - шлях спецназу [ЦСО ,,А,, СБУ України] (2010) Ukr/Rus

Нові коментарі

Нова тема   Відповісти
Автор Повідомлення
Archimedes 
Поважний учасник


З нами з: 15.10.13
Востаннє: 25.07.16
Повідомлень: 156

2014-04-21 00:35  
Альфа - шлях спецназу [ЦСО ,,А,, СБУ України] (2010) Ukr/Rus

Альфа - шлях спецназу [ЦСО ,,А,, СБУ України] (2010) Ukr/Rus


Жанр: Ексклюзивне документальне дослідження
Країна: Україна

Телеканал / кіностудія: PROF1 Group®
Актори: Наливайченко В.О., Крутов В.В. та інші співробітникі

Сюжет:
Перший в українській історії документальний фільм про легендарний спецпіздрозділ "Альфа". Історія створення ЦСО "А" СБ України. Тренування і бойові операції всіх управлінь, відділів та напрямків підрозділу. Зброя, екіпіровка і спорядження. Ексклюзивні інтерв'ю співробітників. 56 хвилин екшену на ім'я "АЛЬФА" (повна версія фільму).

У фільмі:

1. Історія створення ЦСО "A" СБУ, починаючи з 10-ї групи КДБ СРСР.
2. Ексклюзивні інтерв'ю ветеранів та керівників підрозділу.
3. Підготовка співробітників і бойові операції.
4. Відділ парашутистів.
5. Управління охорони ЦСО "А".
6. Гірський відділ.
7. Бойові плавці "Альфа".
8. Кінологи "А".
9. Снайпери.
10. Місія в республіці Ірак.


Тривалість: 01.41.46

Якість:

Відео:
кодек: DivX
розмір кадру: 640x272
бітрейт: 1108 кб/с
частота кадрів: 23,976 fps

Аудіо:
мова: українська (діалоги російською)
переклад: оригінал
кодек: MP3
бітрейт: 64,0 кб/с
Info
Общее
Полное имя : C:\Альфа - шлях спецназу(ЦСО ,,А,, СБУ Укр) 2010 [Hurtom].avi
Формат : AVI
Формат/Информация : Audio Video Interleave
Размер файла : 807 Мбайт
Продолжительность : 1 ч. 41 м.
Общий поток : 1108 Кбит/сек
Программа кодирования : MEncoder dev-SVN-r23673-4.2.0
Библиотека кодирования : MPlayer

Видео
Идентификатор : 0
Формат : MPEG-4 Visual
Профиль формата : [email protected]
Параметр BVOP формата : Нет
Параметр QPel формата : Нет
Параметр GMC формата : Без точки перехода
Параметр матрицы формата : Default (H.263)
Идентификатор кодека : DIVX
Идентификатор кодека/Информация : Project Mayo
Идентификатор кодека/Подсказка : DivX 4
Продолжительность : 1 ч. 41 м.
Битрейт : 1032 Кбит/сек
Ширина : 640 пикселей
Высота : 272 пикселя
Соотношение сторон : 2,35:1
Частота кадров : 23,976 кадра/сек
Цветовое пространство : YUV
Субдискретизация насыщенности : 4:2:0
Битовая глубина : 8 бит
Тип развёртки : Прогрессивная
Метод сжатия : С потерями
Бит/(Пиксели*Кадры) : 0.247
Размер потока : 751 Мбайт (93%)
Библиотека кодирования : Lavc51.40.4

Аудио
Идентификатор : 1
Формат : MPEG Audio
Версия формата : Version 1
Профиль формата : Layer 3
Режим : Joint stereo
Расширение режима : MS Stereo
Идентификатор кодека : 55
Идентификатор кодека/Подсказка : MP3
Продолжительность : 1 ч. 41 м.
Вид битрейта : Постоянный
Битрейт : 64,0 Кбит/сек
Каналы : 2 канала
Частота : 48,0 КГц
Метод сжатия : С потерями
Размер потока : 46,6 Мбайт (6%)
Выравнивание : Соединение по промежуткам
Продолжительность промежутка : 24 мс. (0,58 видеокадр)
Время предзагрузки промежутка : 504 мс.
Библиотека кодирования : LAME3.97
Скріншоти

Джерело:
Особиста оцінка: 10 - без зайвих вагань рекомендую всім!



 Трекер:    Зареєстрований   

Завантажити / скачати торрент



відео для новачків



 Зареєстрований:   2014-04-21 00:35
 Розмір:   807 MB 
 Оцінка:   10/10 (Голосів: 11)
   
virtus8hur 
Попереджень: 1
Попереджень: 1 


З нами з: 06.02.10
Востаннє: 06.12.19
Повідомлень: 3844

2014-04-21 17:52  
Archimedes написано:
1. Історія створення ЦСО "A" СБУ, починаючи з 10-ї групи КДБ СРСР.

гарний початок) !
така структура як "Альфа" не варта на довіру та пошану

Einar 
Новенький


З нами з: 29.07.09
Востаннє: 06.12.19
Повідомлень: 20

2014-04-21 18:48  
такі круті пацани -а їх розстріляли як синків
janek 
Свій


З нами з: 30.08.09
Востаннє: 02.12.19
Повідомлень: 63

2014-04-23 12:08  
в світлі останніх подій можна сказати, що в альфі служать тупі боягузи. на превеликий жаль. мирних демонстрантів вони палили і розстрілювали, а от до озброєних бойовиків навіть наблизитись не змогли - рівень професіоналізму зашкалює. ще одна спецоперація - вбивство Сашка Білого. купа спеців * на одного, ще й в громадському місці, замість затримати - вбили. у мене виникає питання: хто тупіший - офіцери які планують спецоперації чи альфівці котрі їх виконують.
Xshot 
VIP


З нами з: 22.09.09
Востаннє: 06.12.19
Повідомлень: 1649

2014-08-13 13:23  
janek написано:
вбивство Сашка Білого

janek написано:
альфівці

До чого тут "альфа"? Це була робота спецпідрозділу «Сокіл»

Ua.bos_01 
VIP


З нами з: 22.06.15
Востаннє: 05.12.19
Повідомлень: 1586

2016-03-18 10:27  
Двояке ставлення. Щодо фільму, то він явно награний і однобокий, з точки зору створення та діяльності самого спецпідрозділу. Щодо діяльності роти "А", то тут теж важко щось однозначно стверджувати. По-перше, їхній рівень підготовки за 20 років не змінився. По-друге, бойовий досвід пройшли далеко не всі, і їм це не допомогло на Сході з багатьох причин. І останнє. Я особисто знаю двох офіцерів "Альфи", які віддали життя за Україну на Сході, тому не можна однозначно стверджувати, що всі вони боягузи та зрадники. Говорити так - це дурнем себе виставити.
Ваш часовий пояс: GMT + 2 Години

Нова тема   Відповісти