Комендантська година / Curfew (2012) 720p Ukr/Eng (ШафаМедіа)

Нові коментарі

Нова тема   Відповісти
Останній раз роздавалося Medvgulka (2016-08-22)

Увійдіть, щоб проголосувати
Автор Повідомлення
NextDayMinor 
Свій


З нами з: 14.06.13
Востаннє: 01.10.17
Повідомлень: 85

2014-04-17 15:39  
Комендантська година / Curfew (2012) Ukr/Eng

Комендантська година / Curfew (2012) 720p Ukr/Eng (ШафаМедіа)


Жанр: короткий метр, драма
Країна: США

Режисер: Шон Крістенсен
Актори: Фатіма Птацек, Шон Крістенсен, Кім Ален, Дена Сігал, Кірстен Холі Сміт, Марк Реджістер

http://www.imdb.com/title/tt2088735

Сюжет:
Коли Річі вирішує, нарешті, покінчити із своїм життям, у ньому з'являється новий сенс: дев'ятирічна племінниця Софія, яку Річі не бачив кілька років. Чи зможе один вечір із дівчинкою змінити його життя?

Премія "Оскар" 2013 року за найкращий короткометражний ігровий фільм.

Тривалість: 00:19:42
Якість:
Відео:
кодек:
розмір кадру: 1280 х 536
бітрейт: 3968 кб/с

Аудіо # 1:
мова: українська
переклад: багатоголосий закадровий
кодек: 2.0
бітрейт: 384 кб/с

Аудіо # 2:
мова: англійська
переклад: оригінал
кодек: 5.1
бітрейт: 384 кб/с
Скріншоти



Звіт Info
Video
ID : 1
Format : AVC
Format/Info : Advanced Video Codec
Format profile : [email protected]
Format settings, CABAC : No
Format settings, ReFrames : 2 frames
Codec ID : V_MPEG4/ISO/AVC
Duration : 19mn 42s
Bit rate : 3 968 Kbps
Width : 1 280 pixels
Height : 536 pixels
Display aspect ratio : 2.40:1
Frame rate mode : Constant
Frame rate : 23.976 fps
Color space : YUV
Chroma subsampling : 4:2:0
Bit depth : 8 bits
Scan type : Progressive
Bits/(Pixel*Frame) : 0.241
Stream size : 559 MiB (86%)
Title : ripped by HD4FUN.COM
Language : English
Default : Yes
Forced : No
Color primaries : BT.709
Transfer characteristics : BT.709
Matrix coefficients : BT.709

Audio #1
ID : 2
Format : AC-3
Format/Info : Audio Coding 3
Mode extension : CM (complete main)
Format settings, Endianness : Big
Codec ID : A_AC3
Duration : 19mn 42s
Bit rate mode : Constant
Bit rate : 192 Kbps
Channel(s) : 2 channels
Channel positions : Front: L R
Sampling rate : 44.1 KHz
Bit depth : 16 bits
Compression mode : Lossy
Stream size : 27.1 MiB (4%)
Language : Ukrainian
Default : Yes
Forced : Yes

Audio #2
ID : 3
Format : AC-3
Format/Info : Audio Coding 3
Mode extension : CM (complete main)
Format settings, Endianness : Big
Codec ID : A_AC3
Duration : 19mn 42s
Bit rate mode : Constant
Bit rate : 384 Kbps
Channel(s) : 6 channels
Channel positions : Front: L C R, Side: L R, LFE
Sampling rate : 48.0 KHz
Bit depth : 16 bits
Compression mode : Lossy
Stream size : 54.1 MiB (8%)
Language : English
Default : No
Forced : No
Переклад і озвучення:

Особиста оцінка: 8 - мені сподобалося


Авторський реліз (завантажувати можна без реєстрації)
 Трекер:    Зареєстрований   

Завантажити / скачати фільм українською



відео для новачків



 Зареєстрований:   2014-04-17 15:39
 Розмір:   653 MB 
 Оцінка фільму:   9.9/10 (Голосів: 9)
   
kino. 
Модератор відео


З нами з: 27.06.10
Востаннє: 18.10.17
Повідомлень: 2894

2014-04-17 16:40  
Скріншоти повинні бути у форматі .png
NextDayMinor 
Свій


З нами з: 14.06.13
Востаннє: 01.10.17
Повідомлень: 85

2014-04-17 17:05  
kino. написано:
Скріншоти повинні бути у форматі .png

Виправлено.

Ваш часовий пояс: GMT + 2 Години

Нова тема   Відповісти