Школа Мерців / Gakuen Mokushiroku / Highschool of the Dead [Серіал+ОВА] [2010] 720p

Нові коментарі

Нова тема   Відповісти
Автор Повідомлення
Arch Enemy 
VIP


З нами з: 30.08.12
Востаннє: 20.08.17
Повідомлень: 644

2014-04-13 16:42  
Школа Мерців / Gakuen Mokushiroku / Highschool of the Dead


Вікове обмеження: 16+

Країна: Японія
Період трансляції: з 05.07.2010 по 20.09.2010
Жанр: жахи, бойовик, еччі, школа, драма
Аніместудія: Madhouse Inc.
Режисер: Аракі Тецуро
Автор оригіналу: Сато Дайсуке
Сейю: Савашіро Міюкі (Бусуджіма Саеко), Хіяма Нобуюкі (Хірано Кота), Сувабе Джунічі (Комуро Такаші), Іное Маріна (Міямото Рей), Кітамура Ері (Такаґі Сая), Міяно Мамору (Іґо Хісаші), Такетацу Аяна (Маресато Еліс), Фукуі Юкарі (Марікава Шізука), Такеучі Джюнко (Мінамі Ріка), Таніяма Кішо (Шідо Коічі) та інші.

Сюжет: Таємнича смертельна хвороба розповзається по всьому світу і в катастрофічно швидких темпах винищує людство, перетворюючи його на живих мерців.
В одній з японських шкіл декілька учнів і шкільна медсестра об'єдналися, щоб утекти з кошмару, в якому вони опинилися після того, як школу атакували зомбі. Разом вони намагаються з'ясувати хто або що стало причиною цієї епідемії, і між тим намагаються вижити в цьому апокаліпсисі.

© MadGuy

Кількість серій: 12 (1 серія / ~24 хв.) +1 ОВА (16 хв.)
Перелік серій
01. Весна Мерців
02. Утеча від мерців
03. За законами мерців
04. Утікаючи від мерців
05. Вулиці мерців
06. У мерців посеред ночі
07. Мертва ніч і юрба мерців
08. З мерцями дорогою додому
09. Меч та мерці
10. Домашні правила мерців
11. На бій проти мерців
12. Повстання мерців
OVA. Заблукалі з мерцями


Відео:

якість:
контейнер:
кодек:
частота кадрів: 23.976 кадрів/сек.
розмір кадру: 1280х720 пікс.
бітрейт: ~3500 кбіт/сек.
бітність: Серіал: 10 біт, ОВА: 8 біт.

Аудіо:
мова: українська, двоголосе закадрове озвучування
кодек:
кількість каналів: 2.0
бітрейт: 192 кбіт/сек.
частота: 48000 Гц

Субтитри:
мова: українська, написи, лірика та прев'ю.
формат: ASS
тип: програмні, м'які, внутрішні

Джерело озвучення: AniUA

озвучування: Hennessi та Kraka
переклад: MadGuy
таймінг: Kohinsan
робота зі звуком: Spectator
координація проекту: Arch_Enemy

Джерело релізу: AniUA
Скріншоти
MI Series
General
Unique ID : 181288870952368667262215053732632157854 (0x8862F76D8923198DB370A85F08615E9E)
Complete name : E:\Anime\[AniUA]_Highschool_of_the_Dead_[720p]\[AniUA]_Gakuen_Mokushiroku_-_Highschool_of_the_Dead_[01]_[BDRip_1280x720_x264_AC3]_[Hnnessi_and_Kraka].
Format :
Format version : Version 4 / Version 2
File size : 735 MiB
Duration : 23mn 40s
Overall bit rate : 4 337 Kbps
Encoded date : UTC 2014-04-13 13:14:18
Writing application : mkvmerge v6.8.0 ('Theme for Great Cities') 64bit built on Mar 2 2014 21:34:26
Writing library : libebml v1.3.0 + libmatroska v1.4.1
Attachment : Imported font from HIGHSCHOOL OF THE DEAD - 01.ass / Imported font from HIGHSCHOOL OF THE DEAD - 01.ass / Imported font from HIGHSCHOOL OF THE DEAD - 01.ass / Imported font from HIGHSCHOOL OF THE DEAD - 01.ass / Imported font from HIGHSCHOOL OF THE DEAD - 01.ass / Imported font from HIGHSCHOOL OF THE DEAD - 01.ass

Video
ID : 1
Format : AVC
Format/Info : Advanced Video Codec
Format profile : High [email protected]
Format settings, CABAC : Yes
Format settings, ReFrames : 9 frames
Codec ID : V_MPEG4/ISO/AVC
Duration : 23mn 40s
Bit rate : 4 059 Kbps
Width : 1 280 pixels
Height : 720 pixels
Display aspect ratio : 16:9
Frame rate mode : Constant
Frame rate : 23.976 fps
Color space : YUV
Chroma subsampling : 4:2:0
Bit depth : 10 bits
Scan type : Progressive
Bits/(Pixel*Frame) : 0.184
Stream size : 688 MiB (94%)
Title : http://aniua.com/
Writing library : core 125 r2200 999b753
Encoding settings : cabac=1 / ref=9 / deblock=1:-2:-2 / analyse=0x3:0x133 / me=umh / subme=9 / psy=1 / psy_rd=0.90:0.00 / mixed_ref=1 / me_range=24 / chroma_me=1 / trellis=2 / 8x8dct=1 / cqm=0 / deadzone=21,11 / fast_pskip=1 / chroma_qp_offset=-2 / threads=6 / lookahead_threads=1 / sliced_threads=0 / nr=0 / decimate=0 / interlaced=0 / bluray_compat=0 / constrained_intra=0 / bframes=8 / b_pyramid=2 / b_adapt=2 / b_bias=0 / direct=1 / weightb=1 / open_gop=0 / weightp=2 / keyint=250 / keyint_min=23 / scenecut=40 / intra_refresh=0 / rc=crf / mbtree=0 / crf=15.7 / qcomp=0.70 / qpmin=9 / qpmax=40 / qpstep=4 / ip_ratio=1.40 / pb_ratio=1.30 / aq=1:0.90
Language : Japanese
Default : Yes
Forced : Yes

Audio
ID : 2
Format : AC-3
Format/Info : Audio Coding 3
Mode extension : CM (complete main)
Format settings, Endianness : Big
Codec ID : A_AC3
Duration : 23mn 40s
Bit rate mode : Constant
Bit rate : 192 Kbps
Channel count : 2 channels
Channel positions : Front: L R
Sampling rate : 48.0 KHz
Bit depth : 16 bits
Compression mode : Lossy
Stream size : 32.5 MiB (4%)
Title : Hennessi and Kraka
Language : Ukrainian
Default : Yes
Forced : Yes

Text
ID : 3
Format : ASS
Codec ID : S_TEXT/ASS
Codec ID/Info : Advanced Sub Station Alpha
Compression mode : Lossless
Title : Signs by MadGuy
Language : Ukrainian
Default : Yes
Forced : Yes
MI OVA
General
Unique ID : 216838846893683013911655782470795186034 (0xA321A490C318E5CFB93651D913A8CF72)
Complete name : E:\Anime\[AniUA]_Highschool_of_the_Dead_[720p]\[AniUA]_Gakuen_Mokushiroku_-_Highschool_of_the_Dead_[OVA]_[BDRip_1280x720_x264_AC3]_[Hennessi_and_Kraka].
Format :
Format version : Version 4 / Version 2
File size : 471 MiB
Duration : 16mn 11s
Overall bit rate : 4 073 Kbps
Encoded date : UTC 2014-09-07 19:46:43
Writing application : mkvmerge v7.1.0 ('Good Love') 64bit built on Jul 27 2014 13:06:55
Writing library : libebml v1.3.0 + libmatroska v1.4.1
Attachements : ACME Bold_0.ttf / ARIALNBI_0.TTF / Betina Normal_0.ttf / BirchCCT_0.TTF / comicbd_0.ttf / impact_0.ttf / trebucbi_0.ttf / trebucit_0.ttf
DURATION : 00:16:11.008000000
NUMBER_OF_FRAMES : 30344
NUMBER_OF_BYTES : 23304192
_STATISTICS_WRITING_APP : mkvmerge v7.1.0 ('Good Love') 64bit built on Jul 27 2014 13:06:55
_STATISTICS_WRITING_DATE_UTC : 2014-09-07 19:46:43
_STATISTICS_TAGS : BPS DURATION NUMBER_OF_FRAMES NUMBER_OF_BYTES

Video
ID : 1
Format : AVC
Format/Info : Advanced Video Codec
Format profile : [email protected]
Format settings, CABAC : Yes
Format settings, ReFrames : 9 frames
Codec ID : V_MPEG4/ISO/AVC
Duration : 16mn 11s
Bit rate : 3 800 Kbps
Width : 1 280 pixels
Height : 720 pixels
Display aspect ratio : 16:9
Frame rate mode : Constant
Frame rate : 23.976 fps
Color space : YUV
Chroma subsampling : 4:2:0
Bit depth : 8 bits
Scan type : Progressive
Bits/(Pixel*Frame) : 0.172
Stream size : 440 MiB (93%)
Title : http://aniua.com/
Writing library : core 100 r1659 57b2e56
Encoding settings : cabac=1 / ref=9 / deblock=1:-2:-2 / analyse=0x3:0x133 / me=umh / subme=9 / psy=1 / psy_rd=0.80:0.00 / mixed_ref=1 / me_range=24 / chroma_me=1 / trellis=2 / 8x8dct=1 / cqm=0 / deadzone=21,11 / fast_pskip=1 / chroma_qp_offset=-2 / threads=1 / sliced_threads=0 / nr=0 / decimate=0 / interlaced=0 / constrained_intra=0 / bframes=8 / b_pyramid=2 / b_adapt=2 / b_bias=0 / direct=1 / weightb=1 / open_gop=0 / weightp=2 / keyint=250 / keyint_min=25 / scenecut=40 / intra_refresh=0 / rc=crf / mbtree=0 / crf=16.0 / qcomp=0.70 / qpmin=9 / qpmax=28 / qpstep=4 / ip_ratio=1.40 / pb_ratio=1.30 / aq=1:0.95
Language : Japanese
Default : Yes
Forced : Yes
DURATION : 00:16:10.637000000
NUMBER_OF_FRAMES : 23272
NUMBER_OF_BYTES : 469942268
_STATISTICS_WRITING_APP : mkvmerge v7.1.0 ('Good Love') 64bit built on Jul 27 2014 13:06:55
_STATISTICS_WRITING_DATE_UTC : 2014-09-07 19:46:43
_STATISTICS_TAGS : BPS DURATION NUMBER_OF_FRAMES NUMBER_OF_BYTES

Audio
ID : 2
Format : AC-3
Format/Info : Audio Coding 3
Mode extension : CM (complete main)
Format settings, Endianness : Big
Codec ID : A_AC3
Duration : 16mn 11s
Bit rate mode : Constant
Bit rate : 192 Kbps
Channel(s) : 2 channels
Channel positions : Front: L R
Sampling rate : 48.0 KHz
Bit depth : 16 bits
Compression mode : Lossy
Stream size : 22.2 MiB (5%)
Title : Hennessi and Kraka
Language : Ukrainian
Default : Yes
Forced : Yes

Text
ID : 3
Format : ASS
Codec ID : S_TEXT/ASS
Codec ID/Info : Advanced Sub Station Alpha
Compression mode : Lossless
Title : Signs by MadGuy
Language : Ukrainian
Default : Yes
Forced : Yes


Авторський реліз (завантажувати можна без реєстрації)
 Трекер:    Зареєстрований   

Завантажити / скачати аніме українською



відео для новачків



 Зареєстрований:   2014-09-08 23:10
 Розмір:   8.48 GB 
 Оцінка аніме:   9.6/10 (Голосів: 10)
   
KuatemOk 
Поважний учасник


З нами з: 15.11.08
Востаннє: 19.08.17
Повідомлень: 179

2014-04-13 20:26  
прикольне аніме, вже 2 українські озвучки зустрічав, але, нажаль, жодна не була завершена, ну я впевнений, що ви доведете справу до кінця)
Arch Enemy 
VIP


З нами з: 30.08.12
Востаннє: 20.08.17
Повідомлень: 644

2014-04-13 22:15  
KuatemOk написано:
прикольне аніме, вже 2 українські озвучки зустрічав, але, нажаль, жодна не була завершена, ну я впевнений, що ви доведете справу до кінця)

Ми стараємося завершити, є такі проекти які робимо довго, проте стараємося не кидати, якщо вже не вийде в два, то буде робитися в одноголос, хоча я сумніваюся в цьому))).

Друга серія скоро буде.
Жін. ролі вже озвучено, зараз ще Хєн трохи підлікується і озвучить, тоді все зробимо.

Arch Enemy 
VIP


З нами з: 30.08.12
Востаннє: 20.08.17
Повідомлень: 644

2014-05-04 15:48  
Реліз Оновлено - Додано 2-3 Серії

Fenix0904 
Новенький


З нами з: 24.09.12
Востаннє: 20.08.17
Повідомлень: 20

2014-05-04 16:12  
Напевно, дочекаюсь всіх серій і тоді перегляну)
Arch Enemy 
VIP


З нами з: 30.08.12
Востаннє: 20.08.17
Повідомлень: 644

2014-06-12 14:21  
Реліз Оновлено - Додано 4 Серію

Arch Enemy 
VIP


З нами з: 30.08.12
Востаннє: 20.08.17
Повідомлень: 644

2014-07-16 17:24  
Реліз Оновлено - Додано 5 Серію

zgryvus 
Відео Гуртом - дизайнер
Відео Гуртом - дизайнер


З нами з: 21.08.09
Востаннє: 18.08.17
Повідомлень: 1493

2014-07-16 20:16  
Моє улюблене аніме в жанрі зомбі Wide grin
Єдине питання, це ж нецензурована версія?

Arch Enemy 
VIP


З нами з: 30.08.12
Востаннє: 20.08.17
Повідомлень: 644

2014-07-16 22:10  
zgryvus написано:
Єдине питання, це ж нецензурована версія?

Звичайно що ні, це ж БД-ріп))) як доказ - в наступній серії будуть голі цицьки)))

6 серія вже готова, і викладена на нашому трекері, тут викладу її завтра, в період з 15:30 до 00:00 )))

Arch Enemy 
VIP


З нами з: 30.08.12
Востаннє: 20.08.17
Повідомлень: 644

2014-07-17 20:26  
Реліз Оновлено - Додано 6 Серію

Arch Enemy 
VIP


З нами з: 30.08.12
Востаннє: 20.08.17
Повідомлень: 644

2014-07-28 15:42  
Реліз Оновлено - Додано 7 Серію

Arch Enemy 
VIP


З нами з: 30.08.12
Востаннє: 20.08.17
Повідомлень: 644

2014-07-31 19:27  
Реліз Оновлено - Додано 8 Серію

Arch Enemy 
VIP


З нами з: 30.08.12
Востаннє: 20.08.17
Повідомлень: 644

2014-08-05 16:10  
Реліз Оновлено - Додано 9 Серію

Arch Enemy 
VIP


З нами з: 30.08.12
Востаннє: 20.08.17
Повідомлень: 644

2014-08-19 22:34  
Реліз Оновлено - Додано 10 Серію

stepan_sj 
Новенький


З нами з: 16.10.13
Востаннє: 18.08.17
Повідомлень: 3

2014-08-26 01:55  
Дуже дякую за вашу працю)) Wide grin
Arch Enemy 
VIP


З нами з: 30.08.12
Востаннє: 20.08.17
Повідомлень: 644

2014-08-26 22:15  
stepan_sj написано:
Дуже дякую за вашу працю))

Та на здоров'я.
Протягом тижня тут викладу повний комплект (серіал+ова, буде одним релізом).

Arch Enemy 
VIP


З нами з: 30.08.12
Востаннє: 20.08.17
Повідомлень: 644

2014-09-08 23:17  
Реліз Оновлено - Додано [останні] 12 Серію та OVA Епізод


Ще мінус один проект.
От і закінчили це чудо, довго мучили, але таки зробили, тепер хоч повністю озвучений.

P.S.: Хто приклеїть до релізу оті гівняні саби з матюками - поцілю викруткою в око!

eXteSy- 
VIP


З нами з: 06.04.09
Востаннє: 20.08.17
Повідомлень: 1591

2015-12-23 00:38  
"Треш і угар" - найкраща характеристика цього аніме. Купа крові, фансервісу (практично завжди дуже недоречно притягнутого), пародії та навіть самоіронії, а також практично повна відсутність хоч якогось сюжету.
6/10

EvGaS 
Відео Гуртом - підтримка та поширення
Відео Гуртом - підтримка та поширення


З нами з: 27.02.12
Востаннє: 20.08.17
Повідомлень: 3332

2016-03-14 17:56  
eXteSy- написано:
"Треш і угар" - найкраща характеристика цього аніме.

+1, навіть й додати нічого.

Окрім скріншоту загорожі, яку не може протаранити броньований Хамві, натовп зомбаків, неможливо пролізти крізь неї, пролізти над нею чи під нею і взагалі все пропало - єдине що залишається це битися з натовпом зомбі поклавши гвинтівку на цицьки і махаючи спідницею та знову ж цицьками поміж зомбаків та навіть куль (буквально). Рекорд Зомбі на ім'я Шон побито. )))

shanjin 
VIP


З нами з: 17.04.13
Востаннє: 19.08.17
Повідомлень: 462

2017-01-28 13:13  
Хоча і вийшов гарний зомбі-апокаліпсис,але таки відчувся деякий дисбаланс жанрів)

P.S.Дякую за українізацію.

Ваш часовий пояс: GMT + 2 Години

Нова тема   Відповісти