Чотири весілля (Сезон 3) (2014)

Нові коментарі

Нова тема   Відповісти
Останній раз роздавалося rpm68 (2017-06-23)
Автор Повідомлення
DTI 
Новенький


З нами з: 26.01.12
Востаннє: 21.08.17
Повідомлень: 10

2014-04-03 19:36  
Чотири весілля (Сезон 3) (2014)

Чотири весілля (Сезон 3) (2014)


Жанр: сімейний
Країна: Україна

Телеканал: 1+1
Опис:
Чотири абсолютно справжні наречені, які погодилися взяти участь у змаганні за чарівну весільну подорож, прагнуть перевершити одна одну у ефектності шлюбної церемонії, оригінальності сукні та мужності обранця. Звісно, кожна із чотирьох переконана, що її весілля – ідеальне. Усі вони по черзі одружуються та запрошують трьох конкуренток на своє свято. Ті – оцінюють кожну дрібничку так прискіпливо, як не здатна жодна свекруха, та виставляють бали за кількома критеріями. У підсумку – та із чотирьох, яка отримала найвищі бали, відправляється у казкову подорож.А для решти розпочинається найцікавіше, оскільки вони отримують можливість дізнатися, що ж дівчата сказали про її свято. Отут і розкривається справжній жіночий характер.


Випуски:
1 - 12.02.2014
2 - 26.02.2014
3 - 05.03.2014
4 - 12.03.2014
5 - 19.03.2014
6 - 26.03.2014
7 - 02.04.2014
8 - 09.04.2014
9 - 16.04.2014
10 - 23.04.2014
11 - 30.04.2014
12 - 07.05.2014

Тривалість: ~1:00:00
Якість:
Відео:
кодек:
розмір кадру: 720x540
бітрейт: 1799 кб/с

Аудіо:
мова:
- ведучий: українська;
- учасники: українська, російська;
- музичний супровід: українська, російська, англійська, французька і ін.
кодек:
бітрейт: 128 кб/с
Info

Video
ID : 0
Format : MPEG-4 Visual
Format profile : Advanced [email protected]
Format settings, BVOP : 1
Format settings, QPel : No
Format settings, GMC : No warppoints
Format settings, Matrix : Default (MPEG)
Muxing mode : Packed bitstream
Codec ID :
Codec ID/Hint :
Duration : 1h 2mn
Bit rate : 1 795 Kbps
Width : 720 pixels
Height : 540 pixels
Display aspect ratio : 4:3
Frame rate : 25.000 fps
Color space : YUV
Chroma subsampling : 4:2:0
Bit depth : 8 bits
Scan type : Progressive
Compression mode : Lossy
Bits/(Pixel*Frame) : 0.185
Stream size : 808 MiB (93%)
Writing library : 64

Audio
ID : 1
Format :
Format/Info : Advanced Audio Codec
Format profile : LC
Codec ID : FF
Duration : 1h 2mn
Bit rate : 128 Kbps
Channel count : 2 channels
Channel positions : Front: L R
Sampling rate : 44.1 KHz
Compression mode : Lossy
Stream size : 57.7 MiB (7%)
Alignment : Split accross interleaves
Interleave, duration : 23 ms (0.58 video frame)
Interleave, preload duration : 536 ms
Скріншоти







Джерело:
Особиста оцінка: 10 - без зайвих вагань рекомендую всім!


Золотий реліз (завантажене не впливає на рейтинг)
 Трекер:    Зареєстрований   

Завантажити / скачати передачу українською



відео для новачків



 Зареєстрований:   2014-09-21 14:30
 Розмір:   9.86 GB 
 Оцінка передачі:   8.5/10 (Голосів: 6)
   
Konfucius 
Управління
Управління


З нами з: 30.09.07
Востаннє: 22.08.17
Повідомлень: 4944

2014-04-04 20:49  
Бракує кодеку аудіо.
DTI 
Новенький


З нами з: 26.01.12
Востаннє: 21.08.17
Повідомлень: 10

2014-04-11 14:18  
Додав випуск № 8
DTI 
Новенький


З нами з: 26.01.12
Востаннє: 21.08.17
Повідомлень: 10

2014-04-17 09:34  
Додав випуск 9
DTI 
Новенький


З нами з: 26.01.12
Востаннє: 21.08.17
Повідомлень: 10

2014-04-25 11:39  
Випуск 10
Franci 
Новенький


З нами з: 09.04.10
Востаннє: 24.01.17
Повідомлень: 10

2014-04-25 12:23  
Станьте хтось на роздачу, будь-ласка!
DTI 
Новенький


З нами з: 26.01.12
Востаннє: 21.08.17
Повідомлень: 10

2014-09-21 14:31  
Додав випуски 11 і 12
gagaboy 
VIP


З нами з: 22.12.10
Востаннє: 23.08.17
Повідомлень: 349

2015-04-02 17:54  
Буде від вас 4й сезон?
Ваш часовий пояс: GMT + 2 Години

Нова тема   Відповісти