Космічний пірат капітан Гарлок / Space Pirate Captain Harlock / Uchu Kaizoku Captain Harlock (2013) 720p Jap | sub Ukr/Chn

Нові коментарі

Нова тема   Відповісти
Останній раз роздавалося Oles_tymosh (2017-08-21)
Автор Повідомлення
Anonymous 







2014-04-01 21:27  
Космічний пірат капітан Гарлок / Space Pirate Captain Harlock / Uchu Kaizoku Captain Harlock (2013) 720p Jap | sub Ukr/Chn

Космічний пірат капітан Гарлок / Space Pirate Captain Harlock / Uchu Kaizoku Captain Harlock (2013) 720p Jap | sub Ukr/Chn


Жанр: анімація, драма, фантастика
Країна: Японія



Кінокомпанія: Toei Animation Company
Режисер: Арамакі Шінджі
Актори: Oґурі Шюн, Міура Харума, Аой Юу

Сюжет:
Протягом багатьох років між галактиками йшла відчайдушна війна за право повернення 500 мільярдів землян на Землю - місце, яке все ще можна було назвати домом і звідки колись були вигнані їх предки. Вимушені покинути спустошену Землю, люди переселилися в різні куточки галактики і за сотні років вичерпали усі ресурси нових світів. Тепер Земля стала найбажанішим і найціннішим ресурсом, який контролює войовнича організація "Щит Геї", яка керує розселеною по далеких галактик людською расою. Вигнаний із Землі та обмовлений після битви у Війні за повернення, капітан Гарлок та віддана йому команда міжзоряного крейсера "Аркадія" залишилися останньою надією людства на розгадку найважливіших секретів Геї. "Щит" зажадав смерті Гарлока, і новий командор флоту Геї, Ісора, призвав свого молодшого брата, Яму, проникнути на "Аркадію" та вбити Гарлока, тим самим знищивши єдину людину, що стоїть на шляху планів "Щита Геї".


Тривалість: 01:55:00
Якість:
Відео:
кодек:
розмір кадру: 1280 х 536
бітрейт: 3500 кб/с

Аудіо:
мова: японська
переклад: оригінал
кодек: 5.1
бітрейт: 1509 кб/с

Субтитри:
мова: українська
тип: програмні (м'які)
формат: *.ass
Переклад: Sensetivity та The_P6
Редактор: Snovyda

Субтитри:
мова: китайська
тип: програмні (м'які)
формат: *.ass
MI

General
Unique ID : 216277167700269121855342052453697344245 (0xA2B577A4A6968103A84D72CD8ACA52F5)
Complete name : D:\Anime\Space.Pirate.Captain.Harlock.2013.720p.BluRay..-WiKi [PublicHD]\Space.Pirate.Captain.Harlock.2013.720p.BluRay..-WiKi.
Format :
Format version : Version 4 / Version 2
File size : 4.04 GiB
Duration : 1h 55mn
Overall bit rate : 5 020 Kbps
Movie name : Jubowo @ WiKi
Encoded date : UTC 2014-02-24 07:49:06
Writing application : mkvmerge v6.5.0 ('Isn't she lovely') built on Oct 20 2013 12:50:05
Writing library : libebml v1.3.0 + libmatroska v1.4.1
Attachment : Yes

Video
ID : 1
Format : AVC
Format/Info : Advanced Video Codec
Format profile : [email protected]
Format settings, CABAC : Yes
Format settings, ReFrames : 12 frames
Codec ID : V_MPEG4/ISO/AVC
Duration : 1h 55mn
Bit rate : 3 500 Kbps
Width : 1 280 pixels
Height : 536 pixels
Display aspect ratio : 2.40:1
Frame rate mode : Constant
Frame rate : 23.976 fps
Color space : YUV
Chroma subsampling : 4:2:0
Bit depth : 8 bits
Scan type : Progressive
Bits/(Pixel*Frame) : 0.213
Stream size : 2.74 GiB (68%)
Writing library : core 129 r2245+704+36 8e61944 tMod+MixAQ [[email protected]:2:0 X86_64]
Encoding settings : cabac=1 / ref=12 / deblock=1:-1:-1 / analyse=0x3:0x133 / me=umh / subme=11 / psy=1 / fade_compensate=0.00 / psy_rd=0.60:0.00 / mixed_ref=1 / me_range=32 / chroma_me=1 / trellis=2 / 8x8dct=1 / cqm=0 / deadzone=21,11 / fast_pskip=0 / chroma_qp_offset=-2 / threads=18 / lookahead_threads=3 / sliced_threads=0 / nr=0 / decimate=0 / interlaced=0 / bluray_compat=0 / constrained_intra=0 / fgo=0 / bframes=10 / b_pyramid=2 / b_adapt=2 / b_bias=0 / direct=3 / weightb=1 / open_gop=0 / weightp=2 / keyint=250 / keyint_min=23 / scenecut=40 / intra_refresh=0 / rc=2pass / mbtree=0 / bitrate=3500 / ratetol=1.0 / qcomp=0.70 / qpmin=0 / qpmax=69 / qpstep=4 / cplxblur=20.0 / qblur=0.5 / ip_ratio=1.40 / pb_ratio=1.30 / aq=3 / aq-strength=0.95 / aq-sensitivity=10.00 / aq-ifactor=1.00 / aq-pfactor=1.00 / aq-bfactor=1.00 / aq2=0
Language : Japanese
Default : Yes
Forced : No

Audio
ID : 2
Format :
Format/Info : Digital Theater Systems
Mode : 16
Format settings, Endianness : Big
Codec ID : A_DTS
Duration : 1h 55mn
Bit rate mode : Constant
Bit rate : 1 509 Kbps
Channel count : 6 channels
Channel positions : Front: L C R, Side: L R, LFE
Sampling rate : 48.0 KHz
Bit depth : 24 bits
Compression mode : Lossy
Stream size : 1.21 GiB (30%)
Language : Japanese
Default : Yes
Forced : No

Text
ID : 3
Format : ASS
Codec ID : S_TEXT/ASS
Codec ID/Info : Advanced Sub Station Alpha
Compression mode : Lossless
Language : Chinese
Default : Yes
Forced : No

Menu
00:00:00.000 : en:00:00:00.000
00:02:00.453 : en:00:02:00.453
00:07:42.920 : en:00:07:42.920
00:14:16.897 : en:00:14:16.897
00:18:00.120 : en:00:18:00.120
00:24:02.315 : en:00:24:02.315
00:30:51.349 : en:00:30:51.349
00:40:31.053 : en:00:40:31.053
00:43:42.411 : en:00:43:42.411
00:49:21.500 : en:00:49:21.500
00:54:03.365 : en:00:54:03.365
01:06:38.244 : en:01:06:38.244
01:21:25.422 : en:01:21:25.422
01:23:40.557 : en:01:23:40.557
01:36:55.726 : en:01:36:55.726
01:41:41.512 : en:01:41:41.512
01:47:42.456 : en:01:47:42.456
Скріншоти
















Джерело: &


Золотий реліз (завантажене не впливає на рейтинг)
 Трекер:    Зареєстрований   

Завантажити / скачати аніме українською



відео для новачків



 Зареєстрований:   2014-04-01 21:27
 Розмір:   4.04 GB 
 Оцінка аніме:   8/10 (Голосів: 11)
   
BOOGud 
VIP


З нами з: 06.03.12
Востаннє: 23.07.17
Повідомлень: 907

2014-04-01 21:51  
емм, ти там за озвучку щось казав, то я й чекав до тепер, варто чекати й надалі чи не буде?
Anonymous 







2014-04-01 22:06  
BOOGud
Озвучкою вже займаються.

Did Kokos 
VIP


З нами з: 27.05.13
Востаннє: 21.08.17
Повідомлень: 351

2014-04-01 23:46  
За це щиро дякую! І чекаю на озвучення!
freddycryger 
VIP


З нами з: 21.11.12
Востаннє: 15.04.17
Повідомлень: 389

2014-04-02 00:25  
Подивився в неті трейлер сподобалось. Теж з нетерпінням чекаю озвучки.
bot 
робот


З нами з: 30.09.07
Востаннє: 26.05.05
Повідомлень: 17407

2014-04-02 01:16  
Тему перенесено з Мультфільми до форуму Мультфільми в HD


NeetScrool

somnambula 
Відео Гуртом - дизайнер
Відео Гуртом - дизайнер


З нами з: 06.11.09
Востаннє: 21.08.17
Повідомлень: 761

2014-04-03 19:01  
Чекаю звуку, з скріншотів виглядає апетитне))
На саби на жаль очі втомлені(((

Hentaihunter 
VIP


З нами з: 16.08.08
Востаннє: 21.08.17
Повідомлень: 2362

2014-04-03 20:53  
Я б зрозумів наявність оригінальних сабів, але китайських...
kino. вкотре демонструє недбале виконання своїх обов'язків, адже відсутній рейтинг anidb.

ТОЛЯН 
Поважний учасник


З нами з: 01.07.11
Востаннє: 25.06.17
Повідомлень: 245

2014-04-03 20:59  
Hentaihunter написано:
kino. вкотре демонструє недбале виконання своїх обов'язків, адже відсутній рейтинг anidb.

що за рейтинг?

Hentaihunter 
VIP


З нами з: 16.08.08
Востаннє: 21.08.17
Повідомлень: 2362

2014-04-03 21:09  
Такого ж штибу, як і imdb.
ТОЛЯН 
Поважний учасник


З нами з: 01.07.11
Востаннє: 25.06.17
Повідомлень: 245

2014-04-03 21:20  
Hentaihunter написано:
Такого ж штибу, як і imdb.

6c6c6 написано:

Всі рядки в "Майстрі оформлення релізу" є обов'язковими, окрім:
- параметрів елементів, складових, яких немає в вашому релізі,
- інформації, якої немає в вільному доступі (Вікіпедія, IMDB, та інші).

Той рейтинг можна і не вказувати.

Anonymous 







2014-04-03 21:56  
Hentaihunter написано:
kino. вкотре демонструє недбале виконання своїх обов'язків, адже відсутній рейтинг anidb.

В оформленні МУЛЬТФІЛЬМУ немає пункту рейтинг АніДб.

Додано через 5 хвилин 36 секунд:

Hentaihunter написано:
Я б зрозумів наявність оригінальних сабів, але китайських...

Так це оригінальний файл. Я не маю звички перепаковувати -> повністю змінювати хеш файлу лише тому, щоб забрати субтитри.

somnambula 
Відео Гуртом - дизайнер
Відео Гуртом - дизайнер


З нами з: 06.11.09
Востаннє: 21.08.17
Повідомлень: 761

2014-06-14 16:45  
Я так розумію, що цій стрічці зробили український дубляж, принаймні в мережі кінопалацу є показ.
Anonymous 







2014-06-14 18:49  
somnambula
Там багатоголоска.

Gwean 
Відео Гуртом - фільмокрай
Відео Гуртом - фільмокрай


З нами з: 28.07.12
Востаннє: 22.08.17
Повідомлень: 449

2014-06-23 03:37  
BOOGud
якщо цікавить озвучка, то вона вже є тут за перекладом Наталії Дев'ятко: https://toloka.to/t57193#656315

Gedet 
Відео Гуртом - субтитрування
Відео Гуртом - субтитрування


З нами з: 17.11.11
Востаннє: 17.05.17
Повідомлень: 1798

2014-06-23 12:26  
Гвене, такту в тебе немає, я так бачу.
Gwean 
Відео Гуртом - фільмокрай
Відео Гуртом - фільмокрай


З нами з: 28.07.12
Востаннє: 22.08.17
Повідомлень: 449

2014-06-23 12:44  
Gedet
Дивно це читати саме від тебе.

bot 
робот


З нами з: 30.09.07
Востаннє: 26.05.05
Повідомлень: 17407

2014-06-27 13:03  
Тему перенесено з Мультфільми в HD до форуму Аніме


NeetScrool

Ваш часовий пояс: GMT + 2 Години

Нова тема   Відповісти