Елементарно (Сезон 2) / Elementary (Season 2) (2013-2014) 720p Ukr/Eng

Нові коментарі

Нова тема   Відповісти
Автор Повідомлення
Dark Invader 
Модератор відео


З нами з: 06.01.11
Востаннє: 05.12.20
Повідомлень: 3010

2014-03-30 00:49  
Елементарно (Сезон 2) / Elementary (Season 2) (2013-2014) 720p Ukr/Eng

Елементарно (Сезон 2) / Elementary (Season 2) (2013-2014) 720p Ukr/Eng


Жанр: драма, детектив, кримінал
Країна: США



Кінокомпанія: CBS Television Studios, Timberman/Beverly Productions, Hill of Beans Productions / CBS
Режисер: Джон Полсон, Ендрю Бернштейн, Сет Мен, Сана Хамрі та інші
Актори: Джонні Лі Міллер, Люсі Лью, Ейдан Куінн, Менні Перез, Крістен Буш, Лайам Фергюсон, Келлі Сауферленд, Отем Стейн та інші

Сюжет:
Сучасна історія про дует, що розкриває злочини, Шерлока Холмса й доктора Ватсона, який допомагає поліції Нью-Йорка в найскладніших справах. Після лікування від алкоголізму й наркоманії Шерлок збігає з Лондона на Манхеттен, а його багатий батько змушує його взяти «компаньйонку по тверезості» — Джоан Ватсон. Для Джоан це можливість надолужити минулі гріхи — вона була успішним хірургом до того, як з її провини загинув пацієнт, і вона втратила ліцензію. Але Шерлок не такий, як її попередні клієнти. Він відразу ж повідомляє, що підтримувати тверезість він буде за допомогою роботи консультантом у поліції Нью-Йорка. У Ватсон не залишається вибору крім як іти за ним усюди. Шерлок знаходить її медичні знання корисними, а вона раптово знаходить у собі таланти слідчого. Застосувавши дедуктивний метод, легко здогадатися, що ексцентричний Шерлок Холмс не довго простягне в Нью-Йорку, розкриваючи злочини. Його пориви повинен стримувати вірний друг. Хто б це міг бути? Елементарно! Ватсон!


Тривалість: 1 серія: ~ 43 хв. (цілком серій: 24)
Перелік серій
01. Step Nine
02. Solve For X
03. We Are Everyone
04. Poison Pen
05. Ancient History
06. An Unnatural Arrangement
07. The Marchioness
08. Blood Is Thicker
09. On the Line
10. Tremors
11. Internal Audit
12. The Diabolical Kind
13. All in the Family
14. Dead Clade Walking
15. Corpse de Ballet
16. The One Percent Solution
17. Ears to You
18. The Hound of the Cancer Cells
19. The Many Mouths of Aaron Colville
20. No Lack of Void
21. The Man With the Twisted Lip
22. Paint It Black
23. Art in the Blood
24. The Grand Experiment
Якість:
Відео:
кодек:
розмір кадру: 1 280 х 720
бітрейт: ~ 4 000 кб/с

Аудіо # 1:
мова: українська
переклад: професійний дубльований
кодек: 2.0
бітрейт: 192 кб/с

Аудіо # 2:
мова: англійська
переклад: оригінал
кодек: 5.1
бітрейт: 384 кб/с

Переклад і озвучення виконано:
студією "Так Треба Продакшн" на замовлення телеканалу



Info
General
Unique ID : 187230806742027277360967827891340573504 (0x8CDB577B1183AAC8B3E5B6DE15D1FB40)
Complete name : D:\Нова папка\Elementary - Season 2 (2013-2014) 720p [Ukr, Eng]\Elementary - S02E01 (2013-2014) 720p [Ukr, Eng].
Format :
Format version : Version 4 / Version 2
File size : 1.34 GiB
Duration : 43mn 18s
Overall bit rate : 4 424 Kbps
Encoded date : UTC 2014-03-29 22:20:04
Writing application : v6.1.0 ('Old Devil') built on Mar 2 2013 14:32:37
Writing library : libebml v1.3.0 + v1.4.0

Video
ID : 1
Format : AVC
Format/Info : Advanced Video Codec
Format profile : [email protected]
Format settings, CABAC : No
Format settings, ReFrames : 2 frames
Codec ID : V_MPEG4/ISO/AVC
Duration : 43mn 18s
Bit rate : 3 760 Kbps
Width : 1 280 pixels
Height : 720 pixels
Display aspect ratio : 16:9
Frame rate mode : Constant
Frame rate : 23.976 fps
Color space : YUV
Chroma subsampling : 4:2:0
Bit depth : 8 bits
Scan type : Progressive
Bits/(Pixel*Frame) : 0.170
Stream size : 1.14 GiB (85%)
Language : English
Default : Yes
Forced : No
Color primaries : BT.709
Transfer characteristics : BT.709
Matrix coefficients : BT.709

Audio #1
ID : 2
Format : AC-3
Format/Info : Audio Coding 3
Mode extension : CM (complete main)
Format settings, Endianness : Big
Codec ID : A_AC3
Duration : 43mn 18s
Bit rate mode : Constant
Bit rate : 192 Kbps
Channel(s) : 2 channels
Channel positions : Front: L R
Sampling rate : 48.0 KHz
Bit depth : 16 bits
Compression mode : Lossy
Stream size : 59.5 MiB (4%)
Title : Так Треба Продакшн
Language : Ukrainian
Default : Yes
Forced : No

Audio #2
ID : 3
Format : AC-3
Format/Info : Audio Coding 3
Mode extension : CM (complete main)
Format settings, Endianness : Big
Codec ID : A_AC3
Duration : 43mn 18s
Bit rate mode : Constant
Bit rate : 384 Kbps
Channel(s) : 6 channels
Channel positions : Front: L C R, Side: L R, LFE
Sampling rate : 48.0 KHz
Bit depth : 16 bits
Compression mode : Lossy
Stream size : 119 MiB (9%)
Language : English
Default : No
Forced : No
Торрент-файл оновлено (26.06.2014)
Додано 21-24 серії.
Повний сезон!


Скріншоти:


Джерело:
Особиста оцінка: 10 - без зайвих вагань рекомендую всім!

Цитата:
Подяки:
За запис slavik_v_z.
За синхронізацію slavik_v_z.


Бронзовий реліз (на рейтинг впливає 75% завантаженого)
 Трекер:    Зареєстрований   

Завантажити / скачати серіал українською



відео для новачків



 Зареєстрований:   2014-06-26 12:59
 Розмір:   33.26 GB 
 Оцінка серіалу:   9.9/10 (Голосів: 37)
   
natashelka 
VIP


З нами з: 23.05.10
Востаннє: 01.12.20
Повідомлень: 484

2014-03-30 13:08  
Мабуть цікавий серіал. Якось мені британський серіал Шерлок не дуже. Сподіватимусь американська інтерпретація простіша Tongue out (1)
Dark Invader 
Модератор відео


З нами з: 06.01.11
Востаннє: 05.12.20
Повідомлень: 3010

2014-04-04 18:57  
Торрент-файл оновлено (04.04.2014)
Додано 2-3, 5 серії.

tgrey 
Частий відвідувач


З нами з: 11.08.08
Востаннє: 04.12.20
Повідомлень: 49

2014-04-07 19:22  
а що з 4ю??? серією
Estranded 
VIP


З нами з: 09.02.14
Востаннє: 05.12.20
Повідомлень: 1528

2014-04-07 19:41  
tgrey
Ще не показали.

_John_ 
Новенький


З нами з: 11.02.10
Востаннє: 05.12.20
Повідомлень: 20

2014-05-21 18:48  
Коли буде решта серій?
Dark Invader 
Модератор відео


З нами з: 06.01.11
Востаннє: 05.12.20
Повідомлень: 3010

2014-05-21 23:01  
_John_ написано:
Коли буде решта серій?

Скоро буде.

Dark Invader 
Модератор відео


З нами з: 06.01.11
Востаннє: 05.12.20
Повідомлень: 3010

2014-06-11 12:51  
Торрент-файл оновлено (11.06.2014)
Замінено 1-3, 5 серії.
Додано 4, 6-20 серії.

Leniwiec 
Свій


З нами з: 10.03.14
Востаннє: 04.12.20
Повідомлень: 81

2014-06-13 17:09  
Вельми дякую Wink (1)
Dark Invader 
Модератор відео


З нами з: 06.01.11
Востаннє: 05.12.20
Повідомлень: 3010

2014-06-26 13:00  
Торрент-файл оновлено (26.06.2014)
Додано 21-24 серії.
Повний сезон!

skylime 
Новенький


З нами з: 21.05.12
Востаннє: 29.10.20
Повідомлень: 1

2014-11-02 15:40  
Є якась інформація щодо 3 сезону?
Прокурор 
VIP


З нами з: 24.06.13
Востаннє: 05.12.20
Повідомлень: 376

2015-01-20 21:45  
3-ій сезон буде? (українське озвучення)
gaidamack 
Свій


З нами з: 19.07.08
Востаннє: 02.12.20
Повідомлень: 123

2015-02-21 13:54  
Панове дайте швидкості!!!
Robar III 
Забанено
Забанено


З нами з: 18.08.11
Востаннє: 01.05.20
Повідомлень: 4905

2016-08-29 19:25  
Цікаво хтось записує зараз 3-й сезон з НТН?
Neytreenor 
Відео Гуртом - запис з ТБ
Відео Гуртом - запис з ТБ


З нами з: 03.04.11
Востаннє: 05.12.20
Повідомлень: 2925

2016-08-29 19:51  
Robar III написано:
Цікаво хтось записує зараз 3-й сезон з НТН?

Там нічого писати, канал вирішив не робити переклад.

Robar III 
Забанено
Забанено


З нами з: 18.08.11
Востаннє: 01.05.20
Повідомлень: 4905

2016-08-29 20:44  
Neytreenor написано:
Там нічого писати, канал вирішив не робити переклад.

російською йде?? сумно..

Olsem 
Свій


З нами з: 02.07.09
Востаннє: 02.12.20
Повідомлень: 110

2016-12-13 09:29  


Крутять москальською, нездари ...

Olsem 
Свій


З нами з: 02.07.09
Востаннє: 02.12.20
Повідомлень: 110

2017-07-26 16:24  
Нечебто 4 сезон українською, на НТНі.
Ваш часовий пояс: GMT + 2 Години

Нова тема   Відповісти