Лист до Момо / ももへの手紙 (Momo e no Tegami) / A Letter to Momo (2011) Ukr/Jap

Нові коментарі

Нова тема   Відповісти
Автор Повідомлення
Patlati Продакшнз 
Частий відвідувач


З нами з: 09.01.12
Востаннє: 16.03.17
Повідомлень: 35

2014-03-26 17:22  
Лист до Момо / ももへの手紙 (Momo e no Tegami) / A Letter to Momo (2011) Ukr/Jap

Лист до Момо / ももへの手紙 (Momo e no Tegami) / A Letter to Momo (2011) Ukr/Jap


Жанр: драма, пригоди, сімейний

Країна: Японія



7.5 (492 голосів)

Кінокомпанія: Production I.G
Режисер: Хіроюкі Окіура
Ролі озвучують: Міяма Карен Тані Ікуко Сакаґучі Йошісада Нішіда Тошіюкі Ямадера Койчі

Сюжет:
Момо разом з матір’ю переїжджає жити на маленький острів, до містечка, де немає ані супермаркетів, ані розважальних центрів, де усі знають одне одного, і чи не єдина забавка місцевих дітлахів – стрибки з мосту. Момо має побудувати нові стосунки – з матір’ю, новими друзями, і з померлим батьком, який надіслав до неї невидимих охоронців.


Тривалість: 120:00
Відео:
кодек: DivX
розмір кадру: 720 х 480
бітрейт: 1499кб/с

Аудіо # 1:
мова: українська
переклад: багатоголосий закадровий (Patlati Продакшнз)
кодек: 5.1
бітрейт: 384 кб/с

Аудіо # 2:
мова: японська
переклад: оригінал
кодек: 5.1
бітрейт: 384 кб/с
Info
General
Complete name : D:\VIDEO\Toorentz-out\Momo_eno_tegami_ukr_Patlati_480p.avi
Format : AVI
Format/Info : Audio Video Interleave
Format profile : OpenDML
Format settings : rec
File size : 1.92 GiB
Duration : 2h 0mn
Overall bit rate : 2 274 Kbps
Writing application : AVI-Mux GUI 1.17.8.3, Feb 16 201019:42:50

Video
ID : 0
Format : MPEG-4 Visual
Format profile : [email protected]
Format settings, BVOP : No
Format settings, QPel : No
Format settings, GMC : No warppoints
Format settings, Matrix : Default (H.263)
Codec ID : DX50
Codec ID/Hint : DivX 5
Duration : 2h 0mn
Bit rate : 1 499 Kbps
Width : 720 pixels
Height : 480 pixels
Display aspect ratio : 3:2
Frame rate : 23.976 fps
Standard : NTSC
Color space : YUV
Chroma subsampling : 4:2:0
Bit depth : 8 bits
Scan type : Progressive
Compression mode : Lossy
Bits/(Pixel*Frame) : 0.181
Stream size : 1.26 GiB (66%)
Writing library : Lavc51.40.4

Audio #1
ID : 1
Format : AC-3
Format/Info : Audio Coding 3
Mode extension: CM (complete main)
Format settings, Endianness : Big
Codec ID : 2000
Duration : 2h 0mn
Bit rate mode : Constant
Bit rate : 384 Kbps
Channel(s) : 6 channels
Channel positions : Front: L C R, Side: L R, LFE
Sampling rate : 48.0 KHz
Bit depth : 16 bits
Compression mode : Lossy
Stream size : 331 MiB (17%)
Alignment : Aligned on interleaves
Interleave, duration : 64 ms (1.53 video frames)
Interleave, preload duration : 192 ms
Title : momo_ru

Audio #2
ID : 2
Format : AC-3
Format/Info : Audio Coding 3
Mode extension : CM (complete main)
Format settings, Endianness : Big
Codec ID : 2000
Duration : 2h 0mn
Bit rate mode : Constant
Bit rate : 384 Kbps
Channel(s) : 6 channels
Channel positions : Front: L C R, Side: L R, LFE
Sampling rate : 48.0 KHz
Bit depth : 16 bits
Compression mode : Lossy
Stream size : 331 MiB (17%)
Alignment : Aligned on interleaves
Interleave, duration : 64 ms (1.53 video frames)
Interleave, preload duration : 192 ms
Title : Momo_jp
Скріншоти






[/center]
Джерело: Patlati Продакшнз
Особиста оцінка: 9 - давно не бачив настільки якісне кіно


Авторський реліз (завантажувати можна без реєстрації)
 Трекер:    Зареєстрований   

Завантажити / скачати аніме українською



відео для новачків



 Зареєстрований:   2014-03-28 22:07
 Розмір:   1.92 GB 
 Оцінка аніме:   9.7/10 (Голосів: 3)
   
bot 
робот


З нами з: 30.09.07
Востаннє: 26.05.05
Повідомлень: 17408

2014-03-26 17:23  
Тему перенесено з Аніме до форуму Анонси релізів


Patlati Продакшнз

Virake 
Localize Team
Localize Team


З нами з: 07.07.09
Востаннє: 15.08.17
Повідомлень: 4452

2014-03-27 00:07  
тепер мені цей постер буде в кошмарах снитися
Patlati Продакшнз 
Частий відвідувач


З нами з: 09.01.12
Востаннє: 16.03.17
Повідомлень: 35

2014-03-27 03:34  
Virake написано:
тепер мені цей постер буде в кошмарах снитися

На добраніч.

wereman 
Частий відвідувач


З нами з: 08.01.13
Востаннє: 21.08.17
Повідомлень: 44

2014-03-27 20:09  
Це кіно чи анімація?
Patlati Продакшнз 
Частий відвідувач


З нами з: 09.01.12
Востаннє: 16.03.17
Повідомлень: 35

2014-03-27 20:50  
wereman написано:
Це кіно чи анімація?

Це аніме.

bot 
робот


З нами з: 30.09.07
Востаннє: 26.05.05
Повідомлень: 17408

2014-03-28 22:03  
Тему перенесено з Анонси релізів до форуму Аніме


Patlati Продакшнз

NeetScrool 
Відео Гуртом - фільмокрай
Відео Гуртом - фільмокрай


З нами з: 10.01.13
Востаннє: 21.08.17
Повідомлень: 2613

2014-03-28 23:53  
Виправляйте:
Цитата:
Лист до Момо / ももへの手紙 (Momo e no Tegami) / A Letter to Momo (2011) AVC Ukr/Jap

Лист до Момо / ももへの手紙 (Momo e no Tegami) / A Letter to Momo (2011) Ukr/Jap
У заголовку на темі.

Patlati Продакшнз написано:

Відео:
кодек:
розмір кадру: 720 х 480
бітрейт: 1499кб/с

DivX

Patlati Продакшнз написано:

Аудіо # 1:
мова: українська
переклад: багатоголосий закадровий (Patlati Продакшнз)
кодек: 2.0

5.1, в японці теж.

І ще у вас щось із скріншотами.
(немає бути чорних полос).

sanchocho 
Новенький


З нами з: 20.11.13
Востаннє: 29.04.17
Повідомлень: 2

2014-03-30 16:20  
Оооо, кайф, отримав неземну насолоду - так довго чекав і, нарешті, дочекався)))) спсб)
NeetScrool 
Відео Гуртом - фільмокрай
Відео Гуртом - фільмокрай


З нами з: 10.01.13
Востаннє: 21.08.17
Повідомлень: 2613

2014-03-30 16:38  
sanchocho
Він вже давно був озвученим.

sanchocho 
Новенький


З нами з: 20.11.13
Востаннє: 29.04.17
Повідомлень: 2

2014-03-31 00:32  
Ну, він нехай буде сто разів озвученим, та я чекав саме на Патлатих)))
Ваш часовий пояс: GMT + 2 Години

Нова тема   Відповісти