Лист до Момо / ももへの手紙 (Momo e no Tegami) / A Letter to Momo (2011) 720p Ukr/Jap

Нові коментарі

Нова тема   Відповісти
Автор Повідомлення
Patlati Продакшнз 
Частий відвідувач


З нами з: 09.01.12
Востаннє: 16.03.17
Повідомлень: 35

2014-03-26 17:16  
Лист до Момо / ももへの手紙 (Momo e no Tegami) / A Letter to Momo (2011) 720p Ukr/Jap

Лист до Момо / ももへの手紙 (Momo e no Tegami) / A Letter to Momo (2011) 720p Ukr/Jap


Жанр: драма, пригоди, сімейний, духи
Країна: Японія



7.5 (492 голосів)

Кінокомпанія: Production I.G
Режисер: Хіроюкі Окіура
Ролі озвучують: Міяма Карен Тані Ікуко Сакаґучі Йошісада Нішіда Тошіюкі Ямадера Койчі

Сюжет:
Момо разом з матір’ю переїжджає жити на маленький острів, до містечка, де немає ані супермаркетів, ані розважальних центрів, де усі знають одне одного, і чи не єдина забавка місцевих дітлахів – стрибки з мосту. Момо має побудувати нові стосунки – з матір’ю, новими друзями, і з померлим батьком, який надіслав до неї невидимих охоронців.


Тривалість: 120:00
Відео:
кодек:
розмір кадру: 1280x720
бітрейт: 4540кб/с

Аудіо # 1:
мова: українська
переклад: багатоголосий закадровий (Patlati Продакшнз)
кодек: 5.1
бітрейт: 1510 кб/с

Аудіо # 2:
мова: японська
переклад: оригінал
кодек: 5.1
бітрейт: 1510 кб/с
Info
General
Unique ID : 239048618403820637149892333189165881696 (0xB3D716D8180B51C3BCC5229196DA1960)
Complete name : D:\VIDEO\Toorentz-out\Momo_eno_tegami_ukr_Patlati_720p.
Format :
Format version : Version 2
File size : 6.37 GiB
Duration : 2h 0mn
Overall bit rate : 7 562 Kbps
Movie name : A Letter to Momo (2011) - Release for HDCLUB
Encoded date : UTC 2014-03-30 12:50:12
Writing application : mkvmerge v3.2.0 ('Beginnings') built on Feb 12 2010 16:46:17
Writing library : libebml v0.7.9 + libmatroska v0.8.1

Video
ID : 1
Format : AVC
Format/Info : Advanced Video Codec
Format profile: [email protected]
Format settings, CABAC : Yes
Format settings, ReFrames : 8 frames
Codec ID : V_MPEG4/ISO/AVC
Duration : 2h 0mn
Bit rate : 4 540 Kbps
Width : 1 280 pixels
Height : 720 pixels
Display aspect ratio : 16:9
Frame rate mode : Constant
Frame rate : 23.976 fps
Color space : YUV
Chroma subsampling : 4:2:0
Bit depth : 8 bits
Scan type : Progressive
Bits/(Pixel*Frame) : 0.205
Stream size : 3.70 GiB (58%)
Writing library : core 125 r2208 d9d2288
Encoding settings : cabac=1 / ref=8 / deblock=1:-1:-1 / analyse=0x3:0x113 / me=umh / subme=10 / psy=1 / psy_rd=1.00:0.10 / mixed_ref=1 / me_range=32 / chroma_me=1 / trellis=2 / 8x8dct=1 / cqm=0 / deadzone=21,11 / fast_pskip=0 / chroma_qp_offset=-5 / threads=12 / lookahead_threads=2 / sliced_threads=0 / nr=0 / decimate=0 / interlaced=0 / bluray_compat=0 / constrained_intra=0 / bframes=6 / b_pyramid=2 / b_adapt=2 / b_bias=0 / direct=3 / weightb=1 / open_gop=0 / weightp=2 / keyint=250 / keyint_min=23 / scenecut=40 / intra_refresh=0 / rc_lookahead=48 / rc=2pass / mbtree=1 / bitrate=4540 / ratetol=1.0 / qcomp=0.60 / qpmin=0 / qpmax=69 / qpstep=4 / cplxblur=20.0 / qblur=0.5 / ip_ratio=1.40 / aq=1:0.00
Language : English
Default : Yes
Forced : No

Audio #1
ID : 2
Format :
Format/Info : Digital Theater Systems
Codec ID : A_DTS
Duration : 2h 0mn
Bit rate mode : Constant
Bit rate : 1 510 Kbps
Channel(s) : 6 channels
Channel positions : Front: L C R, Side: L R, LFE
Sampling rate : 48.0 KHz
Bit depth : 24 bits
Compression mode : Lossy
Stream size : 1.27 GiB (20%)
Language : Ukrainian
Default : Yes
Forced : No

Audio #2
ID : 3
Format :
Format/Info : Digital Theater Systems
Codec ID : A_DTS
Duration : 2h 0mn
Bit rate mode : Constant
Bit rate : 1 510 Kbps
Channel(s) : 6 channels
Channel positions : Front: L C R, Side: L R, LFE
Sampling rate : 48.0 KHz
Bit depth : 24 bits
Compression mode : Lossy
Stream size : 1.27 GiB (20%)
Language : Japanese
Default : No
Forced : No
Скріншоти







Джерело: Patlati Продакшнз
Особиста оцінка: 9 - давно не бачив настільки якісне кіно


Авторський реліз (завантажувати можна без реєстрації)
 Трекер:    Зареєстрований   

Завантажити / скачати аніме українською



відео для новачків



 Зареєстрований:   2014-03-31 00:20
 Розмір:   6.37 GB 
 Оцінка аніме:   9.7/10 (Голосів: 6)
   
bot 
робот


З нами з: 30.09.07
Востаннє: 26.05.05
Повідомлень: 17367

2014-03-26 17:23  
Тему перенесено з Аніме до форуму Анонси релізів


Patlati Продакшнз

21jumpstreet 
VIP


З нами з: 03.07.12
Востаннє: 19.08.17
Повідомлень: 390

2014-03-29 11:08  
коли реліз буде готовий?
bot 
робот


З нами з: 30.09.07
Востаннє: 26.05.05
Повідомлень: 17367

2014-03-31 00:19  
Тему перенесено з Анонси релізів до форуму Аніме


Patlati Продакшнз

Patlati Продакшнз 
Частий відвідувач


З нами з: 09.01.12
Востаннє: 16.03.17
Повідомлень: 35

2014-03-31 00:25  
Свіженьке, щойно з рендер-пічки =)
Ваш часовий пояс: GMT + 2 Години

Нова тема   Відповісти