Лист до Момо / ももへの手紙 (Momo e no Tegami) / A Letter to Momo (2011) 1080p Ukr/Jap

Нові коментарі

Нова тема   Відповісти
Автор Повідомлення
Patlati Продакшнз 
Частий відвідувач


З нами з: 09.01.12
Востаннє: 16.03.17
Повідомлень: 35

2014-03-26 17:13  
Лист до Момо / ももへの手紙 (Momo e no Tegami) / A Letter to Momo (2011) 1080p Ukr/Jap

Лист до Момо / ももへの手紙 (Momo e no Tegami) / A Letter to Momo (2011) 1080p Ukr/Jap


Жанр: драма, пригоди, сімейний
Країна: Японія



7.5 (492 голосів)

Кінокомпанія: Production I.G
Режисер: Хіроюкі Окіура
Ролі озвучують: Міяма Карен Тані Ікуко Сакаґучі Йошісада Нішіда Тошіюкі Ямадера Койчі

Сюжет:
Момо разом з матір’ю переїжджає жити на маленький острів, до містечка, де немає ані супермаркетів, ані розважальних центрів, де усі знають одне одного, і чи не єдина забавка місцевих дітлахів – стрибки з мосту. Момо має побудувати нові стосунки – з матір’ю, новими друзями, і з померлим батьком, який надіслав до неї невидимих охоронців.


Тривалість: 120:00
Відео:
кодек:
розмір кадру: 1920x1080
бітрейт: 9 290 кб/с

Аудіо # 1:
мова: українська
переклад: багатоголосий закадровий (Patlati Продакшнз)
кодек: 5.1
бітрейт: 1510 кб/с

Аудіо # 2:
мова: японська
переклад: оригінал
кодек: 5.1
бітрейт: 1510 кб/с
Info
General
Unique ID : 217987869084712433423555499746902158151 (0xA3FEEFBBBBDDA289AF35CFC7E9C82B47)
Complete name : D:\VIDEO\Toorentz-out\Momo_eno_tegami_ukr_Patlati_1080p.
Format :
Format version : Version 2
File size : 10.6 GiB
Duration : 2h 0mn
Overall bit rate : 12.6 Mbps
Movie name : A Letter to Momo (2011) - Release for HDCLUB
Encoded date : UTC 2014-03-30 13:15:06
Writing application : mkvmerge v3.2.0 ('Beginnings') built on Feb 12 2010 16:46:17
Writing library : libebml v0.7.9 + libmatroska v0.8.1

Video
ID : 1
Format : AVC
Format/Info : Advanced Video Codec
Format profile : High [email protected]
Format settings, CABAC : Yes
Format settings, ReFrames : 4 frames
Codec ID : V_MPEG4/ISO/AVC
Bit rate : 9 290 Kbps
Width : 1 920 pixels
Height : 1 080 pixels
Display aspect ratio : 16:9
Frame rate mode: Variable
Original frame rate : 23.976 fps
Color space : YUV
Chroma subsampling : 4:2:0
Bit depth : 10 bits
Scan type : Progressive
Writing library : core 128 r2216+698 b3c1019
Encoding settings : cabac=1 / ref=4 / deblock=1:0:0 / analyse=0x3:0x113 / me=umh / subme=11 / psy=1 / fade_compensate=0.00 / psy_rd=1.00:0.15 / mixed_ref=1 / me_range=32 / chroma_me=1 / trellis=2 / 8x8dct=1 / cqm=0 / deadzone=21,11 / fast_pskip=0 / chroma_qp_offset=-3 / threads=12 / lookahead_threads=2 / sliced_threads=0 / nr=0 / decimate=1 / interlaced=0 / bluray_compat=0 / constrained_intra=0 / fgo=0 / bframes=16 / b_pyramid=2 / b_adapt=2 / b_bias=0 / direct=3 / weightb=1 / open_gop=0 / weightp=2 / keyint=240 / keyint_min=24 / scenecut=40 / intra_refresh=0 / rc_lookahead=60 / rc=crf / mbtree=0 / crf=17.0000 / qcomp=0.60 / qpmin=0 / qpmax=40 / qpstep=4 / vbv_maxrate=50000 / vbv_bufsize=62500 / crf_max=0.0 / nal_hrd=none / ip_ratio=1.40 / pb_ratio=1.30 / aq=1:0.90
Default : No
Forced : No
Color primaries : BT.709
Transfer characteristics : BT.709
Matrix coefficients : BT.709

Audio #1
ID : 2
Format :
Format/Info : Digital Theater Systems
Codec ID : A_DTS
Duration : 2h 0mn
Bit rate mode : Constant
Bit rate : 1 510 Kbps
Channel(s) : 6 channels
Channel positions : Front: L C R, Side: L R, LFE
Sampling rate : 48.0 KHz
Bit depth : 24 bits
Compression mode : Lossy
Stream size : 1.27 GiB (12%)
Language : Russian
Defaul : Yes
Forced : No

Audio #2
ID : 3
Format :
Format/Info : Digital Theater Systems
Codec ID : A_DTS
Duration : 2h 0mn
Bit rate mode : Constant
Bit rate : 1 510 Kbps
Channel(s) : 6 channels
Channel positions : Front: L C R, Side: L R, LFE
Sampling rate : 48.0 KHz
Bit depth : 24 bits
Compression mode : Lossy
Stream size : 1.27 GiB (12%)
Language : Japanese
Default : No
Forced : No
Скріншоти






Джерело: Patlati Продакшнз
Особиста оцінка: 9 - давно не бачив настільки якісне кіно


Авторський реліз (завантажувати можна без реєстрації)
 Трекер:    Зареєстрований   

Завантажити / скачати аніме українською



відео для новачків



 Зареєстрований:   2014-03-31 21:36
 Розмір:   10.58 GB 
 Оцінка аніме:   9.8/10 (Голосів: 6)
   
bot 
робот


З нами з: 30.09.07
Востаннє: 26.05.05
Повідомлень: 17367

2014-03-26 17:13  
Тему перенесено з Аніме до форуму Анонси релізів


Patlati Продакшнз

kol0984 
Частий відвідувач


З нами з: 15.01.14
Востаннє: 17.08.17
Повідомлень: 35

2014-03-26 19:53  
Перий на кртинці -- москалик з триколором?))
Patlati Продакшнз 
Частий відвідувач


З нами з: 09.01.12
Востаннє: 16.03.17
Повідомлень: 35

2014-03-26 21:11  
kol0984 написано:
Перий на кртинці -- москалик з триколором?))

Надто гарний для москалика Wide grin

bot 
робот


З нами з: 30.09.07
Востаннє: 26.05.05
Повідомлень: 17367

2014-03-31 21:36  
Тему перенесено з Анонси релізів до форуму Аніме


Patlati Продакшнз

Косячок справжній 
VIP


З нами з: 29.02.12
Востаннє: 18.08.17
Повідомлень: 1010

2017-04-20 20:08  
Мій мозок перебуває у прострації.
Ваш часовий пояс: GMT + 2 Години

Нова тема   Відповісти