Сага про Бйорна / The Saga Of Biorn (2011)

Нові коментарі

Нова тема   Відповісти
Автор Повідомлення
Ukr Voice Team 
Відео Гуртом - озвучення
Відео Гуртом - озвучення


З нами з: 31.12.13
Востаннє: 11.08.15
Повідомлень: 60

2014-03-25 21:06  
Сага про Бйорна / The Saga Of Biorn (2011)




Жанр: анімація, фентезі
Країна: Данія

Режисер: Патрік Вотберг / Patrick Voetberg
Сюжет:
Головний герой - старий вікінг, чиє життя підходить до кінця. Бйорн хоче попасти після смерті у Валгаллу - небесні хороми, місце, де бог Одін святкує разом з мужніми воїнами, а прислуговують йому валькірії - прекрасні діви-войовниці. Попасти у настільки солодке потойбіччя воїн може лише з честю загинувши у бою, а тому Бйорн відправляється шукати достойного супротивника. Але, як виявляється, знайти такого досить нелегко...


Тривалість: 00:07:05
Якість:
Відео:
кодек: AVC
розмір кадру: 1 280 х 720
бітрейт: 1 379 кб/с

Аудіо:
мова: українська
переклад: псевдо-дубльований | UkrVoiceTeam
кодек: 2.0
бітрейт: 192 кб/с

Постер: somnambula
Переклад на українську мову: somnambula
Скріншоти



Info
General
Complete name : D:\Завантаження\Озвучене\The Saga Of Biorn (2011) [ukr] [Hurtom] [UkrVoiceTeam]\The Saga Of Biorn (2011) [ukr] [Hurtom] [UkrVoiceTeam].avi
Format : AVI
Format/Info : Audio Video Interleave
File size : 80.2 MiB
Duration : 7mn 5s
Overall bit rate : 1 581 Kbps
Writing application : VirtualDubMod 1.5.10.2 (build 2540/release)
Writing library : VirtualDubMod build 2540/release

Video
ID : 0
Format : AVC
Format/Info : Advanced Video Codec
Format profile : [email protected]
Format settings, CABAC : Yes
Format settings, ReFrames : 1 frame
Format settings, GOP : M=1, N=30
Codec ID : AVC1
Duration : 7mn 5s
Bit rate : 1 379 Kbps
Width : 1 280 pixels
Height : 720 pixels
Display aspect ratio : 16:9
Frame rate mode : Variable
Frame rate : 25.000 fps
Color space : YUV
Chroma subsampling : 4:2:0
Bit depth : 8 bits
Scan type : Progressive
Bits/(Pixel*Frame) : 0.060
Stream size : 70.0 MiB (87%)

Audio
ID : 1
Format : AC-3
Format/Info : Audio Coding 3
Mode extension : CM (complete main)
Format settings, Endianness : Big
Codec ID : 2000
Duration : 7mn 5s
Bit rate mode : Constant
Bit rate : 192 Kbps
Channel(s) : 2 channels
Channel positions : Front: L R
Sampling rate : 48.0 KHz
Bit depth : 16 bits
Compression mode : Lossy
Stream size : 9.74 MiB (12%)
Alignment : Split accross interleaves
Interleave, duration : 40 ms (1.00 video frame)
Interleave, preload duration : 500 ms
Джерело: &
Особиста оцінка: 9 - давно не бачив настільки якісне кіно


Авторський реліз (завантажувати можна без реєстрації)
 Трекер:    Зареєстрований   

Завантажити / скачати фільм українською



відео для новачків



 Зареєстрований:   2014-03-25 21:22
 Розмір:   80 MB 
 Оцінка фільму:   9.9/10 (Голосів: 13)
 The Saga Of Biorn (2011) WEBDLRip [ukr] [Hurtom] [UkrVoiceTeam]
   
Vladimirfa 
Новенький


З нами з: 30.03.14
Востаннє: 03.04.14
Повідомлень: 2

2014-04-03 17:44  
Completely I share your opinion. I think, what is it good idea.
...

EvGaS 
Відео Гуртом - субтитрування
Відео Гуртом - субтитрування


З нами з: 27.02.12
Востаннє: 31.07.19
Повідомлень: 5663

2015-04-09 11:12  
Ця короткометражка в свій час голосно прогриміла. =)
Ваш часовий пояс: GMT + 2 Години

Нова тема   Відповісти