Гелій / Helium (2014) 720p Ukr/Dan | sub Ukr

Нові коментарі

Нова тема   Відповісти
Автор Повідомлення
BOOGud 
VIP


З нами з: 06.03.12
Востаннє: 13.01.21
Повідомлень: 905

2014-03-24 02:44  
Гелій / Helium (2014) 720p Ukr/Dan | sub Ukr

Гелій / Helium (2014) 720p Ukr/Dan | sub Ukr


Жанр: сімейний, драма, психологічний
Країна: Данія



Режисер: Андерс Вальтер / Anders Walter
Актори: Каспер Крамп / Casper Crump, Маріанна Янкович / Marijana Jankovic, Пелле Фальк Красбек / Pelle Falk Krusbæk

Сюжет:
Головний герой фільму - смертельно хворий хлопчик Альфред. Прибиральник Енcо старається утішити його й розповідає про казкове королівство Гелій, що лежить за межами цього світу - місце на небі, куди відправляються хворі діти.


Тривалість: 00:21:38
Якість:
Відео:
кодек:
розмір кадру: 1 280 х 544
бітрейт: 916 кб/с

Аудіо # 1:
мова: українська
переклад: двоголосий закадровий | UAVoice
кодек: 5.1
бітрейт: 640 кб/с

Переклад з англійської : somnambula
Озвучення: Людмила Швець та Дмитро Урсуляк
Монтаж та робота зі звуком: BOOGud.
Об'ємний звук(5.1): BOOGud
Обкладинки: somnambula

Аудіо # 2:
мова: данська
переклад: оригінал
кодек: 5.1
бітрейт: 640 кб/с

Субтитри:
мова: українська | somnambula
тип: пререндерні
формат: *.srt
Info

General
Unique ID : 250654794376543573553492021682396777978 (0xBC925B7FD67E827EB8037848A330CDFA)
Complete name : J:\!!!!!Dvd\!2060\Helium.2014.HDTV..].[UKR.DAN][UAVoice].
Format :
Format version : Version 4 / Version 2
File size : 312 MiB
Duration : 21mn 38s
Overall bit rate : 2 015 Kbps
Encoded date : UTC 2014-03-24 00:23:01
Writing application : v6.8.0 ('Theme for Great Cities') 32bit built on Mar 2 2014 21:27:07
Writing library : libebml v1.3.0 + v1.4.1

Video
ID : 1
Format : AVC
Format/Info : Advanced Video Codec
Format profile : [email protected]
Format settings, CABAC : Yes
Format settings, ReFrames : 4 frames
Codec ID : V_MPEG4/ISO/AVC
Duration : 21mn 38s
Bit rate : 887 Kbps
Width : 1 280 pixels
Height : 544 pixels
Display aspect ratio : 2.35:1
Frame rate mode : Constant
Frame rate : 25.000 fps
Color space : YUV
Chroma subsampling : 4:2:0
Bit depth : 8 bits
Scan type : Progressive
Bits/(Pixel*Frame) : 0.051
Stream size : 137 MiB (44%)
Title : dan
Writing library : core 130 r2273 b3065e6
Encoding settings : cabac=1 / ref=1 / deblock=1:0:0 / analyse=0x1:0x111 / me=hex / subme=2 / psy=1 / psy_rd=1.00:0.00 / mixed_ref=0 / me_range=16 / chroma_me=1 / trellis=0 / 8x8dct=0 / cqm=0 / deadzone=21,11 / fast_pskip=1 / chroma_qp_offset=0 / threads=6 / lookahead_threads=2 / sliced_threads=0 / nr=0 / decimate=1 / interlaced=0 / bluray_compat=0 / constrained_intra=0 / bframes=3 / b_pyramid=2 / b_adapt=1 / b_bias=0 / direct=1 / weightb=1 / open_gop=0 / weightp=1 / keyint=250 / keyint_min=25 / scenecut=40 / intra_refresh=0 / rc_lookahead=10 / rc=crf / mbtree=1 / crf=19.0 / qcomp=0.60 / qpmin=0 / qpmax=69 / qpstep=4 / vbv_maxrate=20000 / vbv_bufsize=25000 / crf_max=0.0 / nal_hrd=none / ip_ratio=1.40 / aq=1:1.00
Language : Danish
Default : Yes
Forced : No
Color primaries : BT.709
Transfer characteristics : BT.709
Matrix coefficients : BT.709

Audio #1
ID : 2
Format : AC-3
Format/Info : Audio Coding 3
Mode extension : CM (complete main)
Format settings, Endianness : Big
Codec ID : A_AC3
Duration : 21mn 38s
Bit rate mode : Constant
Bit rate : 640 Kbps
Channel count : 6 channels
Channel positions : Front: L C R, Side: L R, LFE
Sampling rate : 48.0 KHz
Bit depth : 16 bits
Compression mode : Lossy
Stream size : 99.0 MiB (32%)
Title : UKR[DVO_UAVoice]
Language : Ukrainian
Default : Yes
Forced : No

Audio #2
ID : 3
Format : AC-3
Format/Info : Audio Coding 3
Mode extension : CM (complete main)
Format settings, Endianness : Big
Codec ID : A_AC3
Duration : 21mn 38s
Bit rate mode : Constant
Bit rate : 448 Kbps
Channel count : 6 channels
Channel positions : Front: L C R, Side: L R, LFE
Sampling rate : 48.0 KHz
Bit depth : 16 bits
Compression mode : Lossy
Stream size : 69.3 MiB (22%)
Title : dan
Language : Danish
Default : No
Forced : No

Text
ID : 4
Format : UTF-8
Codec ID : S_TEXT/UTF8
Codec ID/Info : UTF-8 Plain Text
Title : ukr_sub
Language : Ukrainian
Default : Yes
Forced : Yes
Скріншоти






















Джерело: uavoice.com & ua-torrent.net
Особиста оцінка: 10 - без зайвих вагань рекомендую всім!


Авторський реліз (завантажувати можна без реєстрації)
 Трекер:    Зареєстрований   

Завантажити / скачати фільм українською



відео для новачків



 Зареєстрований:   2014-03-24 02:44
 Розмір:   312 MB 
 Оцінка фільму:   9.9/10 (Голосів: 16)
   
SergoMozaic 
VIP


З нами з: 04.10.09
Востаннє: 20.01.21
Повідомлень: 514

2014-03-24 07:26  
Вітаю, друже.
Ви напевне забули про рейтінг IMDb.
Дякую за вашу роботу.

BOOGud 
VIP


З нами з: 06.03.12
Востаннє: 13.01.21
Повідомлень: 905

2014-03-24 08:42  
SergoMozaic
Привіт. ти ба дійсно прогледів, дякую, виправив

Konfucius 
Управління
Управління


З нами з: 30.09.07
Востаннє: 19.01.21
Повідомлень: 5215

2014-03-24 22:13  
бракує Info.
BOOGud 
VIP


З нами з: 06.03.12
Востаннє: 13.01.21
Повідомлень: 905

2014-03-24 22:56  
емм, а може хтось прикріпить? ато там деякф релізи висять яким більше року, а нові ви не кріпите
Ваш часовий пояс: GMT + 2 Години

Нова тема   Відповісти