Бібліотечні війни:Крила революції / 図書館戦争 革命のつばさ (Toshokan Sensou:Kakumei no Tsubasa) / Library War:The Wings of Revolution (2012) AVC Ukr/Jap

Нові коментарі

Нова тема   Відповісти
Автор Повідомлення
Patlati Продакшнз 
Частий відвідувач


З нами з: 09.01.12
Востаннє: 16.03.17
Повідомлень: 35

2014-03-18 18:39  
Бібліотечні війни:Крила революції / 図書館戦争 革命のつばさ (Toshokan Sensou:Kakumei no Tsubasa) / Library War:The Wings of Revolution (2012) AVC Ukr/Jap

Бібліотечні війни:Крила революції / 図書館戦争 革命のつばさ (Toshokan Sensou:Kakumei no Tsubasa) / Library War:The Wings of Revolution (2012) AVC Ukr/Jap


Жанр: пригоди, політичний екшн
Країна: Японія



7.46 (169 голосів)

Кінокомпанія: Production I.G
Режисер: Такаюкі Хамана
Сюжет:
У 1989 році в Японії був прийнятий Закон про покращення засобів медіа, який мав на меті захист молоді та суспільства від негативного ідеологічного впливу, але по суті ознаменував введення жорсткої цензури в країні. Історія прийняття закону приховує чимало таємниць. Дискусії про законність цензури в правовому суспільстві не вщухають.
Бібліотеки, останній осередок опору цензурі, з метою захисту свободи слова та протидії урядовому Комітету Покращення Засобів Медіа створили воєнізовані загони Сил Бібліотечної Самооборони.
Боротьба набуває нового розмаху після зухвалого нападу на один із важливих об’єктів Японії, який за примхою долі(?) повністю відтворює події , описані у пригодницькому романі письменника Курато Тома.


Тривалість: 1 серія: 01:45:00 (цілком серій: 1)
Якість:
Відео:
кодек:
розмір кадру: 720 х 480
бітрейт: 1197кб/с

Аудіо # 1:
мова: українська
переклад: багатоголосий закадровий (Patlati Продакшнз)
кодек: 2.0
бітрейт: 384 кб/с

Аудіо # 2:
мова: японська
переклад: оригінал
кодек: 2.0
бітрейт: 384 кб/с
Info
General
Complete name : D:\VIDEO\Toorentz-out\Toshokan_Sensou_Kakumei no Tsubasa_ukr_Patlati_480p.avi
Format : AVI
Format/Info : Audio Video Interleave
Format profile : OpenDML
Format settings : rec
File size : 1.44 GiB
Duration : 1h 44mn
Overall bit rate : 1 972 Kbps
Writing application : AVI-Mux GUI 1.17.8.3, Feb 16 201019:42:50

Video
ID : 0
Format : MPEG-4 Visual
Format profile : [email protected]
Format settings, BVOP : No
Format settings, QPel : No
Format settings, GMC : No warppoints
Format settings, Matrix : Default (H.263)
Codec ID : DX50
Codec ID/Hint : DivX 5
Duration : 1h 44mn
Bit rate : 1 197 Kbps
Width : 720 pixels
Height : 480 pixels
Display aspect ratio : 16:9
Frame rate : 23.976 fps
Standard : NTSC
Color space : YUV
Chroma subsampling : 4:2:0
Bit depth : 8 bits
Scan type : Progressive
Compression mode : Lossy
Bits/(Pixel*Frame) : 0.144
Stream size : 897 MiB (61%)
Writing library : Lavc51.40.4

Audio #1
ID : 1
Format AC-3
Format/Info : Audio Coding 3
Mode extension : CM (complete main)
Format settings, Endianness : Big
Codec ID : 2000
Duration : 1h 44mn
Bit rate mode : Constant
Bit rate : 384 Kbps
Channel(s) : 2 channels
Channel positions : Front: L R
Sampling rate : 48.0 KHz
Bit depth : 16 bits
Compression mode : Lossy
Stream size : 288 MiB (19%)
Alignment : Aligned on interleaves
Interleave, duration : 64 ms (1.53 video frames)
Interleave, preload duration : 192 ms
Title : letter_uke

Audio #2
ID : 2
Format : AC-3
Format/Info : Audio Coding 3
Mode extension : CM (complete main)
Format settings, Endianness : Big
Codec ID : 2000
Duration : 1h 44mn
Bit rate mode : Constant
Bit rate : 384 Kbps
Channel(s) : 2 channels
Channel positions : Front: L R
Sampling rate : 48.0 KHz
Bit depth : 16 bits
Compression mode : Lossy
Stream size : 288 MiB (19%)
Alignment : Aligned on interleaves
Interleave, duration : 64 ms (1.53 video frames)
Interleave, preload duration : 192 ms
Title : letter_jap
Скріншоти





[/center]
Джерело озвучення:
Patlati Продакшнз

Особиста оцінка: 10 - без зайвих вагань рекомендую всім!


Авторський реліз (завантажувати можна без реєстрації)
 Трекер:    Зареєстрований   

Завантажити / скачати аніме українською



відео для новачків



 Зареєстрований:   2014-03-18 18:39
 Розмір:   1.44 GB 
 Оцінка аніме:   10/10 (Голосів: 4)
   
ostipko 
Відео Гуртом - підтримка та поширення
Відео Гуртом - підтримка та поширення


З нами з: 23.02.12
Востаннє: 21.08.17
Повідомлень: 639

2014-03-26 20:22  
Одне із найкращих любительських озвучень, які я чув і які тільки є!
Konstantin_Exorcist 
Новенький


З нами з: 18.11.14
Востаннє: 14.08.17
Повідомлень: 3

2017-01-21 10:20  
Аніме та ще й українською, це просто казка, так тримати! Happy
Ваш часовий пояс: GMT + 2 Години

Нова тема   Відповісти