Бібліотечні війни:Крила революції / 図書館戦争 革命のつばさ (Toshokan Sensou:Kakumei no Tsubasa) / Library War:The Wings of Revolution (2012) 720p Ukr/Jap

Нові коментарі

Нова тема   Відповісти
Автор Повідомлення
Rianon 
Новенький


З нами з: 26.09.09
Востаннє: 07.06.17
Повідомлень: 13

2014-03-16 02:34  
Бібліотечні війни:Крила революції / 図書館戦争 革命のつばさ (Toshokan Sensou:Kakumei no Tsubasa) / Library War:The Wings of Revolution (2012) 720p Ukr/Jap

Бібліотечні війни:Крила революції / 図書館戦争 革命のつばさ (Toshokan Sensou:Kakumei no Tsubasa) / Library War:The Wings of Revolution (2012) 720p Ukr/Jap


Жанр: пригоди, політичний екшн
Країна: Японія



7.46 (169 голосів)

Кінокомпанія: Production I.G
Режисер: Такаюкі Хамана
Сюжет:
У 1989 році в Японії був прийнятий Закон про покращення засобів медіа, який мав на меті захист молоді та суспільства від негативного ідеологічного впливу, але по суті ознаменував введення жорсткої цензури в країні. Історія прийняття закону приховує чимало таємниць. Дискусії про законність цензури в правовому суспільстві не вщухають.
Бібліотеки, останній осередок опору цензурі, з метою захисту свободи слова та протидії урядовому Комітету Покращення Засобів Медіа створили воєнізовані загони Сил Бібліотечної Самооборони.
Боротьба набуває нового розмаху після зухвалого нападу на один із важливих об’єктів Японії, який за примхою долі(?) повністю відтворює події , описані у пригодницькому романі письменника Курато Тома.


Тривалість: 1 серія: 01:45:00 (цілком серій: 1)
Якість:
Відео:
кодек:
розмір кадру: 1280 х 720
бітрейт: 955кб/с

Аудіо # 1:
мова: українська
переклад: багатоголосий закадровий (Patlati Продакшнз)
кодек: 2.0
бітрейт: 1510 кб/с

Аудіо # 2:
мова: японська
переклад: оригінал
кодек: 2.0
бітрейт: 1510 кб/с
Info
General
Unique ID: 194071015664785642503878427400250837294 (0x9200B7D183019DFEBC354F8B64A7C92E)
Complete name: Toshokan_Sensou_Kakumei no Tsubasa_ukr_Patlati_720p.
Format:
Format version:Version 2
File size: 2.97 GiB
Duration: 1h 44mn
Overall bit rate: 4 055 Kbps
Movie name: Toshokan Sensou - Kakumei no Tsubasa [BD 1280x720 DualAAC(2ch+5.1ch) JP+ENSub @ RUELL]
Encoded date: UTC 2014-03-17 20:36:21
Writing application : mkvmerge v3.2.0 ('Beginnings') built on Feb 12 2010 16:46:17
Writing library : libebml v0.7.9 + libmatroska v0.8.1

Video
ID : 1
Format : AVC
Format/Info : Advanced Video Codec
Format profile : [email protected]
Format settings, CABAC : Yes
Format settings, ReFrames : 8 frames
Codec ID : V_MPEG4/ISO/AVC
Duration : 1h 44mn
Bit rate : 955 Kbps
Width : 1 280 pixels
Height : 720 pixels
Display aspect ratio: 16:9
Frame rate mode : Constant
Frame rate : 23.976 fps
Color space : YUV
Chroma subsampling : 4:2:0
Bit depth : 8 bits
Scan type : Progressive
Bits/(Pixel*Frame) : 0.043
Stream size : 716 MiB (24%)
Writing library : core 129 r2245 bc13772
Encoding settings : cabac=1 / ref=8 / deblock=1:0:0 / analyse=0x3:0x113 / me=hex / subme=10 / psy=1 / psy_rd=1.00:0.00 / mixed_ref=1 / me_range=16 / chroma_me=1 / trellis=2 / 8x8dct=1 / cqm=0 / deadzone=21,11 / fast_pskip=1 / chroma_qp_offset=-2 / threads=3 / lookahead_threads=1 / sliced_threads=0 / nr=0 / decimate=1 / interlaced=0 / bluray_compat=0 / constrained_intra=0 / bframes=5 / b_pyramid=2 / b_adapt=2 / b_bias=0 / direct=3 / weightb=1 / open_gop=0 / weightp=2 / keyint=230 / keyint_min=23 / scenecut=40 / intra_refresh=0 / rc_lookahead=40 / rc=crf / mbtree=1 / crf=20.0 / qcomp=0.60 / qpmin=15 / qpmax=25 / qpstep=4 / ip_ratio=1.40 / aq=1:1.00
Default : No
Forced : No

Audio #1
ID : 2
Format :
Format/Info : Digital Theater Systems
Codec ID : A_DTS
Duration : 1h 44mn
Bit rate mode : Constant
Bit rate : 1 510 Kbps
Channel(s) : 2 channels
Channel positions : Front: L R
Sampling rate : 48.0 KHz
Bit depth : 16 bits
Compression mode : Lossy
Stream size : 1.11 GiB (37%)
Language : Ukrainian
Default : Yes
Forced : No

Audio #2
ID : 3
Format :
Format/Info : Digital Theater Systems
Codec ID : A_DTS
Duration : 1h 44mn
Bit rate mode : Constant
Bit rate : 1 510 Kbps
Channel(s) : 2 channels
Channel positions : Front: L R
Sampling rate : 48.0 KHz
Bit depth : 16 bits
Compression mode : Lossy
Stream size : 1.11 GiB (37%)
Language : Japanese
Default : No
Forced : No

Text #1
ID : 4
Format : PGS
Codec ID : S_HDMV/PGS
Codec ID/Info : The same subtitle format used on BDs/HD-DVDs
Language : Japanese
Default : No
Forced : No

Text #2
ID : 5
Format : PGS
Codec ID : S_HDMV/PGS
Codec ID/Info : The same subtitle format used on BDs/HD-DVDs
Language : English
Default : No
Forced : No
Скріншоти






Джерело озвучення:
Patlati Продакшнз

Особиста оцінка: 10 - без зайвих вагань рекомендую всім!


 Трекер:    Зареєстрований   

Завантажити / скачати аніме українською



відео для новачків



 Зареєстрований:   2014-03-18 17:59
 Розмір:   2.97 GB 
 Оцінка аніме:   10/10 (Голосів: 5)
   
bot 
робот


З нами з: 30.09.07
Востаннє: 26.05.05
Повідомлень: 17367

2014-03-16 03:38  
Тему перенесено з Аніме до форуму Анонси релізів


Rianon

bot 
робот


З нами з: 30.09.07
Востаннє: 26.05.05
Повідомлень: 17367

2014-03-18 17:59  
Тему перенесено з Анонси релізів до форуму Аніме


Rianon

Rianon 
Новенький


З нами з: 26.09.09
Востаннє: 07.06.17
Повідомлень: 13

2014-03-19 11:14  
Скріни перезалив у потрібному форматі.
NeetScrool 
Відео Гуртом - фільмокрай
Відео Гуртом - фільмокрай


З нами з: 10.01.13
Востаннє: 19.08.17
Повідомлень: 2613

2014-03-19 11:33  
Цитата:
Бібліотечні війни:Крила революції / 図書館戦争 革命のつばさ (Toshokan Sensou:Kakumei no Tsubasa) / Library War:The Wings of Revolution (2012) Ukr/Jap

Бібліотечні війни:Крила революції / 図書館戦争 革命のつばさ (Toshokan Sensou:Kakumei no Tsubasa) / Library War:The Wings of Revolution (2012) 720p Ukr/Jap
в назві та тілі роздачі виправте.

Rianon 
Новенький


З нами з: 26.09.09
Востаннє: 07.06.17
Повідомлень: 13

2014-03-19 11:44  
Ос!)
Konfucius 
Управління
Управління


З нами з: 30.09.07
Востаннє: 18.08.17
Повідомлень: 4939

2014-03-22 01:26  
CRF в цьому релізі нижчий, ніж 22, і тому показник Bits/(Pixel*Frame) втрачає своє призначення. Прошу пробачення за незручності.
NeetScrool 
Відео Гуртом - фільмокрай
Відео Гуртом - фільмокрай


З нами з: 10.01.13
Востаннє: 19.08.17
Повідомлень: 2613

2014-03-22 01:34  
Konfucius
Але правил понаписували =\

Aya_RINA 
Новенький


З нами з: 28.05.14
Востаннє: 15.01.15
Повідомлень: 1

2014-05-28 21:06  
молю вас швидкості!
Ваш часовий пояс: GMT + 2 Години

Нова тема   Відповісти