Прогулянки з динозаврами / Walking with Dinosaurs (2013) 720p-mini

Нові коментарі

Нова тема   Відповісти
Автор Повідомлення
Drool 
VIP


З нами з: 17.04.10
Востаннє: 21.08.17
Повідомлень: 1374

2014-03-14 12:02  
Прогулянки з динозаврами / Walking with Dinosaurs (2013) 720p-mini

Жанр: анімація, пригодницький, сімейний
Країна: Велика Британія, США, Австралія, Індія



Кінокомпанія: Animal Logic, BBC Earth, BBC Worldwide, Evergreen Films, Reliance Big Entertainment
Режисер: Пьєр Де Лепінуа, Ніл Найтингейл
Актори: Чарлі Роу, Карл Урбан, Анґурі Райс, Джон Леґуізамо, Джастін Лонґ, Скайлер Стоун, Тія Сіркар, Клей Севадж, Джуд Тінселі, Мері Метілін Маусер

Сюжет:
Стародавній світ доісторичних гігантів, що населяли колись нашу планету. Ви побачите, як динозаври полюють, виводять потомство і спілкуються один з одним...


Тривалість: 01:26:13
Якість: 720p-mini
Відео:
кодек:
розмір кадру: 1280x536
бітрейт: 2449 кб/с

Аудіо:
мова: українська
переклад: професійний дубльований
кодек: 5.1
бітрейт: 448 кб/с
Джерело озвучення:
Info
General
Unique ID : 280520723946311786837650999341409009887 (0xD30A53839BD0F673465D5B7E25E680DF)
Complete name : /mnt/disk_d/Video/Walking.with.Dinosaurs.2013..720p-mini.UAGet.
Format :
Format version : Version 2
File size : 1.75 GiB
Duration : 1h 26mn
Overall bit rate : 2 902 Kbps
Writing application : HandBrake rev0
Writing library : libmkv 0.6.5
TITLE : Прогулянки з динозаврами / Walking with Dinosaurs (2013) 720p-mini -=UAGet
ARTIST : Чарлі Роу, Карл Урбан, Анґурі Райс, Джон Леґуізамо, Джастін Лонґ, Скайлер Стоун
DIRECTOR : Пьєр Де Лепінуа, Ніл Найтингейл
DATE_RELEASED : 2013
GENRE : анімація, пригодницький, сімейний
SYNOPSIS : Стародавній світ доісторичних гігантів, що населяли колись нашу планету. Ви побачите, як динозаври полюють, виводять потомство і спілкуються один з одним...

Video
ID : 1
Format : AVC
Format/Info : Advanced Video Codec
Format profile : [email protected]
Format settings, CABAC : Yes
Format settings, ReFrames : 7 frames
Codec ID : V_MPEG4/ISO/AVC
Duration : 1h 26mn
Bit rate : 2 449 Kbps
Width : 1 280 pixels
Height : 536 pixels
Display aspect ratio : 2.40:1
Frame rate mode : Variable
Frame rate : 23.976 fps
Color space : YUV
Chroma subsampling : 4:2:0
Bit depth : 8 bits
Scan type : Progressive
Bits/(Pixel*Frame) : 0.149
Stream size : 1.44 GiB (83%)
Writing library : core 142 r2389 956c8d8
Encoding settings : cabac=1 / ref=8 / deblock=1:-3:-3 / analyse=0x3:0x133 / me=umh / subme=9 / psy=1 / psy_rd=1,00:0,00 / mixed_ref=1 / me_range=32 / chroma_me=1 / trellis=2 / 8x8dct=1 / cqm=0 / deadzone=21,11 / fast_pskip=0 / chroma_qp_offset=-2 / threads=6 / lookahead_threads=1 / sliced_threads=0 / nr=0 / decimate=1 / interlaced=0 / bluray_compat=0 / constrained_intra=0 / bframes=8 / b_pyramid=1 / b_adapt=2 / b_bias=0 / direct=3 / weightb=1 / open_gop=0 / weightp=2 / keyint=240 / keyint_min=24 / scenecut=40 / intra_refresh=0 / rc=2pass / mbtree=0 / bitrate=2449 / ratetol=1,0 / qcomp=1,00 / qpmin=0 / qpmax=69 / qpstep=4 / cplxblur=20,0 / qblur=0,5 / ip_ratio=1,40 / pb_ratio=1,30 / aq=0
Language : English
Default : Yes
Forced : No
Color primaries : BT.709-5, BT.1361, IEC 61966-2-4, SMPTE RP177
Transfer characteristics : BT.709-5, BT.1361
Matrix coefficients : BT.709-5, BT.1361, IEC 61966-2-4 709, SMPTE RP177

Audio
ID : 2
Format : AC-3
Format/Info : Audio Coding 3
Mode extension : CM (complete main)
Codec ID : A_AC3
Duration : 1h 26mn
Bit rate mode : Constant
Bit rate : 448 Kbps
Channel(s) : 6 channels
Channel positions : Front: L C R, Side: L R, LFE
Sampling rate : 48.0 KHz
Bit depth : 16 bits
Compression mode : Lossy
Stream size : 276 MiB (15%)
Language : Ukrainian
Default : Yes
Forced : No
Скріншоти




Джерело:
Особиста оцінка: 10 - без зайвих вагань рекомендую всім!


 Трекер:    Зареєстрований   

Завантажити / скачати мультфільм українською



відео для новачків



 Зареєстрований:   2014-03-17 10:38
 Розмір:   1.75 GB 
 Оцінка мультфільму:   9.4/10 (Голосів: 8)
   
bot 
робот


З нами з: 30.09.07
Востаннє: 26.05.05
Повідомлень: 17407

2014-03-14 12:03  
Тему перенесено з Мультфільми в HD до форуму Анонси релізів


Drool

[email protected] 
Частий відвідувач


З нами з: 19.09.10
Востаннє: 18.07.17
Повідомлень: 45

2014-03-16 18:17  
А коли можна очікувати на реліз?
bot 
робот


З нами з: 30.09.07
Востаннє: 26.05.05
Повідомлень: 17407

2014-03-17 10:38  
Тему перенесено з Анонси релізів до форуму Мультфільми в HD


Drool

Drool 
VIP


З нами з: 17.04.10
Востаннє: 21.08.17
Повідомлень: 1374

2014-03-17 12:05  
Здохла флешка Sad (1) Так що не зможу роздати кільком знайомим, щоб допомогли пороздавати... Прошу вибачення, укртелеком...
Ваш часовий пояс: GMT + 2 Години

Нова тема   Відповісти