Шрек. Страшилка / Shrek. Thriller Night (2011) 1080p Ukr/Eng

Нові коментарі

Нова тема   Відповісти
Автор Повідомлення
Ukr Voice Team 
Відео Гуртом - озвучення
Відео Гуртом - озвучення


З нами з: 31.12.13
Востаннє: 11.08.15
Повідомлень: 60

2014-03-08 18:40  
Шрек. Страшилка / Shrek. Thriller Night (2011) 1080p Ukr/Eng




Жанр: анімація, жахи, мюзикл, комедія
Країна: США

Режисер: Гері Трауздейл / Gary Trousdale, Шон Бішоп / Sean Bishop
Актори: Майкл Ґоу / Michael Gough, Дін Едвардс / Dean Edwards, Голлі Філдс / Holly Fields, Андре Согліуззо / André Sogliuzzo та ін.
Українізація постера: somnambula

Сюжет:
Шреку наскучив буденний Гелоуін, йому захотілося чогось насправді страшного. Сила "Страшилки" дала йому більше, ніж він очікував ...


Тривалість: 00:05:05
Якість: 1080p
Відео:
кодек:
розмір кадру: 1 920 х 1 080
бітрейт: 10.0 мб/с

Аудіо # 1:
мова: українська
переклад: двоголосий закадровий | UkrVoiceTeam
кодек: MP3
бітрейт: 192 кб/с

Аудіо # 2:
мова: англійська
переклад: оригінал
кодек: 5.1
бітрейт: 1 510 кб/с
Info
General
Unique ID : 212507409550069987717371272074550303098 (0x9FDF70376BE404038F27953E518BD97A)
Complete name : D:\Завантаження\Озвучене\Shrek Thriller Night 2011 BluRay 1080p [Ukr-Eng] [UkrVoiceTeam].
Format :
Format version : Version 4 / Version 2
File size : 428 MiB
Duration : 5mn 5s
Overall bit rate : 11.7 Mbps
Movie name : Shrek - Thriller By 3Li
Encoded date : UTC 2014-03-08 16:26:38
Writing application : v6.6.0 ('The Edge Of The In Between') built on Dec 1 2013 17:55:00
Writing library : libebml v1.3.0 + v1.4.1

Video
ID : 1
Format : AVC
Format/Info : Advanced Video Codec
Format profile : [email protected]
Format settings, CABAC : Yes
Format settings, ReFrames : 4 frames
Codec ID : V_MPEG4/ISO/AVC
Duration : 5mn 5s
Bit rate : 10.0 Mbps
Width : 1 920 pixels
Height : 1 080 pixels
Display aspect ratio : 16:9
Frame rate mode : Constant
Frame rate : 23.976 fps
Color space : YUV
Chroma subsampling : 4:2:0
Bit depth : 8 bits
Scan type : Progressive
Bits/(Pixel*Frame) : 0.201
Stream size : 357 MiB (83%)
Title : Shrek - Thriller By 3Li
Writing library : core 125 r2200 999b753
Encoding settings : cabac=1 / ref=4 / deblock=1:-3:-3 / analyse=0x3:0x113 / me=umh / subme=9 / psy=1 / psy_rd=1.00:0.00 / mixed_ref=1 / me_range=16 / chroma_me=1 / trellis=1 / 8x8dct=1 / cqm=0 / deadzone=21,11 / fast_pskip=0 / chroma_qp_offset=-2 / threads=3 / lookahead_threads=1 / sliced_threads=0 / nr=0 / decimate=0 / interlaced=0 / bluray_compat=0 / constrained_intra=0 / bframes=3 / b_pyramid=2 / b_adapt=2 / b_bias=0 / direct=1 / weightb=1 / open_gop=0 / weightp=2 / keyint=240 / keyint_min=23 / scenecut=40 / intra_refresh=0 / rc_lookahead=40 / rc=2pass / mbtree=1 / bitrate=10010 / ratetol=1.0 / qcomp=0.60 / qpmin=0 / qpmax=69 / qpstep=4 / cplxblur=20.0 / qblur=0.5 / ip_ratio=1.40 / aq=1:1.00
Language : English
Default : Yes
Forced : No

Audio #1
ID : 2
Format : MPEG Audio
Format version : Version 1
Format profile : Layer 3
Mode : Joint stereo
Codec ID : A_MPEG/L3
Codec ID/Hint : MP3
Duration : 5mn 5s
Bit rate mode : Constant
Bit rate : 192 Kbps
Channel(s) : 2 channels
Sampling rate : 48.0 KHz
Compression mode : Lossy
Stream size : 7.00 MiB (2%)
Writing library : LAME3.96.1
Language : Ukrainian
Default : No
Forced : No

Audio #2
ID : 3
Format :
Format/Info : Digital Theater Systems
Mode : 16
Format settings, Endianness : Big
Codec ID : A_DTS
Duration : 5mn 5s
Bit rate mode : Constant
Bit rate : 1 510 Kbps
Channel(s) : 6 channels
Channel positions : Front: L C R, Side: L R, LFE
Sampling rate : 48.0 KHz
Bit depth : 24 bits
Compression mode : Lossy
Stream size : 55.1 MiB (13%)
Title : Shrek - Thriller 5.1
Language : English
Default : Yes
Forced : No
Скріншоти



Джерело: &
Особиста оцінка: 8 - мені сподобалося


Авторський реліз (завантажувати можна без реєстрації)
 Трекер:    Зареєстрований   

Завантажити / скачати фільм українською



відео для новачків



 Зареєстрований:   2014-03-08 18:40
 Розмір:   428 MB 
 Оцінка фільму:   10/10 (Голосів: 12)
 Shrek Thriller Night 2011 BluRay 1080p [Ukr-Eng] [UkrVoiceTeam]
   
bot 
робот


З нами з: 30.09.07
Востаннє: 26.05.05
Повідомлень: 26418

2016-08-08 15:19  
Тему перенесено з Короткометражні до форуму Архів відео

Причина перенесення: https://toloka.to/t75247
taraskill1

Alukret 
Свій


З нами з: 11.06.14
Востаннє: 26.11.20
Повідомлень: 100

2020-10-06 19:03  
Шановні, а як причиною перенесення 1080р реліза може стати 400р реліз?
Щось тут нечисто...

bot 
робот


З нами з: 30.09.07
Востаннє: 26.05.05
Повідомлень: 26418

2020-10-14 19:31  
Тему перенесено з Архів відео до форуму Короткометражні


igor911

Ваш часовий пояс: GMT + 2 Години

Нова тема   Відповісти