Незручна правда / An inconvenient truth (2006) 720p Ukr/Eng

Нові коментарі

Нова тема   Відповісти
Автор Повідомлення
Anonymous 







2014-03-04 17:40  
Незручна правда / An inconvenient truth (2006) 720p Ukr/Eng

Незручна правда / An inconvenient truth (2006) 720p Ukr/Eng


Жанр: Документальній
Країна: США

Режисер: Девіс Ґуґґенгайм (Davis Guggenheim)
Актори: Ел Ґор

Сюжет:
Документальний фільм про глобальне потепління (також відоме як зміна клімату), режисер фільму Девіс Ґуґґенгайм, за співпраці Альберта (Ел) Ґора.


Тривалість: 01:36.00
Якість:
Відео:
кодек:
розмір кадру: 1278 х 720
бітрейт: 3781 кб/с

Аудіо 1:
мова: українська
переклад: одноголосий закадровий
кодек: 2.0
бітрейт: 192 кб/с

Аудіо 2:
мова: англійська
переклад: оригінал
кодек: 5.1
бітрейт: 384 кб/с
MI

General
Unique ID : 228424404521556710051913739009616925543 (0xABD8F0A86839DD2A826491E65A4E5367)
Complete name : E:\Документалки\An Inconvenient Truth (2006) 720p [Ukr Eng] [Hurtom].
Format :
Format version : Version 4 / Version 2
File size : 3.00 GiB
Duration : 1h 36mn
Overall bit rate : 4 446 Kbps
Movie name : Незручна правда / An Inconvenient Truth (2006) | Hurtom.com
Encoded date : UTC 2014-03-04 13:29:24
Writing application : mkvmerge v6.8.0 ('Theme for Great Cities') 64bit built on Mar 2 2014 21:34:26
Writing library : libebml v1.3.0 + libmatroska v1.4.1
Attachment : Poster

Video
ID : 1
Format : AVC
Format/Info : Advanced Video Codec
Format profile : [email protected]
Format settings, CABAC : No
Format settings, ReFrames : 2 frames
Codec ID : V_MPEG4/ISO/AVC
Duration : 1h 36mn
Bit rate : 3 781 Kbps
Width : 1 278 pixels
Height : 720 pixels
Display aspect ratio : 16:9
Frame rate mode : Constant
Frame rate : 23.976 fps
Color space : YUV
Chroma subsampling : 4:2:0
Bit depth : 8 bits
Scan type : Progressive
Bits/(Pixel*Frame) : 0.171
Stream size : 2.55 GiB (85%)
Title : An Inconvenient Truth (2006) - Release for Hurtom
Language : English
Default : Yes
Forced : No
Color primaries : BT.709
Transfer characteristics : BT.709
Matrix coefficients : BT.709

Audio #1
ID : 2
Format : AC-3
Format/Info : Audio Coding 3
Mode extension : CM (complete main)
Format settings, Endianness : Big
Codec ID : A_AC3
Duration : 1h 36mn
Bit rate mode : Constant
Bit rate : 192 Kbps
Channel count : 2 channels
Channel positions : Front: L R
Sampling rate : 48.0 KHz
Bit depth : 16 bits
Compression mode : Lossy
Stream size : 133 MiB (4%)
Title : 2.0 @ 192 kbps | VO
Language : Ukrainian
Default : Yes
Forced : No

Audio #2
ID : 3
Format : AC-3
Format/Info : Audio Coding 3
Mode extension : CM (complete main)
Format settings, Endianness : Big
Codec ID : A_AC3
Duration : 1h 36mn
Bit rate mode : Constant
Bit rate : 384 Kbps
Channel count : 6 channels
Channel positions : Front: L C R, Side: L R, LFE
Sampling rate : 48.0 KHz
Bit depth : 16 bits
Compression mode : Lossy
Stream size : 265 MiB (9%)
Title : 5.1 @ 384 kbps
Language : English
Default : No
Forced : No

Menu
00:00:00.000 : en:The River
00:06:29.000 : en:Continental Drift
00:08:52.000 : en:Basic Science Of Global Warming
00:09:52.000 : en:Global Warming Cartoon
00:11:46.000 : en:Professor Revelle
00:14:04.000 : en:CO2 Measure Since 1958
00:16:22.000 : en:Glaciers Recede
00:18:34.000 : en:Ice Cores
00:20:20.000 : en:CO2 Levels Back 650,000 Years
00:24:52.000 : en:Albert's Accident
00:28:07.000 : en:Rising Temperatures
00:30:04.000 : en:Hurricanes
00:34:17.000 : en:2000 Election
00:36:50.000 : en:Precipitation And Evaporation
00:39:28.000 : en:The Gore Farm
00:41:46.000 : en:The Arctic
00:45:59.000 : en:The Ocean Conveyor
00:49:27.000 : en:Resistance To Change
00:51:26.000 : en:Troubling Signs
00:54:19.000 : en:Antartica
00:57:21.000 : en:Sea-Level Rise
01:01:19.000 : en:China
01:03:33.000 : en:Population Explosion
01:05:17.000 : en:Old Habits + New Technology
01:09:37.000 : en:Working Tobacco
01:12:10.000 : en:Is There A Controversy?
01:13:55.000 : en:Science Fraud
01:17:06.000 : en:Balancing The Economy And Environment
01:18:38.000 : en:City By City
01:22:17.000 : en:The Solutions Are In Our Hands
01:24:56.000 : en:Are We Capable Of Doing Great Things?
01:26:48.000 : en:Our Only Home
Скріншоти







Джерело: &
Особиста оцінка: 8 - мені сподобалося


 Трекер:    Зареєстрований   

Завантажити / скачати фільм українською



відео для новачків



 Зареєстрований:   2014-03-04 17:40
 Розмір:   3 GB 
 Оцінка фільму:   7.4/10 (Голосів: 7)
   
patriot2305 
Почесний гуртомівець


З нами з: 23.04.11
Востаннє: 21.12.16
Повідомлень: 4137

2014-03-04 19:10  
NeetScrool написано:
переклад: одноголосий закадровий

Це типу любительський?

Anonymous 







2014-03-04 19:28  
patriot2305
Типу звідки: https://toloka.to/t371
Але, звичайно це не дубляж. Просто VO, професійний.

bot 
робот


З нами з: 30.09.07
Востаннє: 26.05.05
Повідомлень: 17412

2014-03-22 00:56  
Ваш часовий пояс: GMT + 2 Години

Нова тема   Відповісти