Том і Джеррі (Сезон 1, серія 1-11) / Tom and Jerry (Season 1, Episode 1-11) (1940-1943) 1080p

Нові коментарі

Нова тема   Відповісти
Автор Повідомлення
Віталій Прискурій 
Свій


З нами з: 18.06.13
Востаннє: 03.04.21
Повідомлень: 143

2014-03-04 17:28  
Том і Джеррі (Сезон 1, серія 1-11) / Tom and Jerry (Season 1, Episode 1-11) (1940-1943) 1080p



Жанр: анімація, дитячий, сімейний, комедія
Країна: США

Кінокомпанія: Metro Goldwyn Mayer
Режисер: Джозеф Барбера, Уільям Ханна, Джин Дейч, Чак Джонс
Сюжет:
Сюжет більшості серій мультфільму крутиться навколо марних спроб кота Тома спіймати мишу Джеррі, і на руйнування, які з цього випливають. Оскільки в деяких серіях персонажі досить мирно уживаються між собою, залишається незрозумілим, за що Том постійно переслідує Джеррі.


Тривалість: 1 серія: 7 хв. (цілком серій: 11)
Перелік серій | Онлайн
1.Геть із дому!(1940) Переглянути
2.Нічний перекус (1941) Переглянути
3.Ніч перед Різдвом (1941) Переглянути
4.Кіт боягузик (1942) Переглянути
5.Собачі неприємності (1942) Переглянути
6.Киці (1942) Переглянути
7.Мишеня - Янкі (1943) Переглянути
8.Котячі страждання (1943) Переглянути
9.Кіт у боулінг клубі ( 1942) Переглянути
10.Пернатий друг(1942) Переглянути
11.Самотнє мишеня (1943) Переглянути
Скріншоти





Info
General
Unique ID : 215078075990278942774687032672611100055 (0xA1CE87DB808D91F9A99F228B6F2A6597)
Complete name : E:\[UAVoice] Tom and Jerry 1080 UKR\Tom.and.Jerry.E01.1940.1080p.BluRay.Ukr..
Format :
Format version : Version 4 / Version 2
File size : 273 MiB
Duration : 9mn 16s
Overall bit rate : 4 112 Kbps
Movie name : UAVoice.com
Encoded date : UTC 2014-03-04 14:09:13
Writing application : v6.7.0 ('Back to the Ground') 32bit built on Jan 8 2014 15:03:17
Writing library : libebml v1.3.0 + v1.4.1

Video
ID : 1
Format : AVC
Format/Info : Advanced Video Codec
Format profile : [email protected]
Format settings, CABAC : Yes
Format settings, ReFrames : 3 frames
Codec ID : V_MPEG4/ISO/AVC
Duration : 9mn 16s
Bit rate : 4 000 Kbps
Width : 1 480 pixels
Height : 1 080 pixels
Display aspect ratio : 1.370
Frame rate mode : Constant
Frame rate : 23.976 fps
Color space : YUV
Chroma subsampling : 4:2:0
Bit depth : 8 bits
Scan type : Progressive
Bits/(Pixel*Frame) : 0.104
Stream size : 255 MiB (93%)
Title : UAVoice.com
Writing library : core 116 r2019M 9cc407d
Encoding settings : cabac=1 / ref=3 / deblock=1:0:0 / analyse=0x3:0x133 / me=hex / subme=7 / psy=1 / psy_rd=1.00:0.20 / mixed_ref=1 / me_range=16 / chroma_me=1 / trellis=1 / 8x8dct=1 / cqm=0 / deadzone=21,11 / fast_pskip=1 / chroma_qp_offset=-3 / threads=8 / sliced_threads=0 / nr=0 / decimate=1 / interlaced=0 / bluray_compat=0 / constrained_intra=0 / bframes=3 / b_pyramid=1 / b_adapt=2 / b_bias=0 / direct=3 / weightb=1 / open_gop=0 / weightp=2 / keyint=230 / keyint_min=23 / scenecut=40 / intra_refresh=0 / rc_lookahead=40 / rc=abr / mbtree=1 / bitrate=4000 / ratetol=1.0 / qcomp=0.60 / qpmin=10 / qpmax=51 / qpstep=4 / ip_ratio=1.40 / aq=1:1.00
Language : English
Default : Yes
Forced : No

Audio
ID : 2
Format : AC-3
Format/Info : Audio Coding 3
Mode extension : CM (complete main)
Format settings, Endianness : Big
Codec ID : A_AC3
Duration : 9mn 16s
Bit rate mode : Constant
Bit rate : 192 Kbps
Channel(s) : 2 channels
Channel positions : Front: L R
Sampling rate : 48.0 KHz
Bit depth : 16 bits
Compression mode : Lossy
Stream size : 12.7 MiB (5%)
Title : UAVoice.com
Language : Ukrainian
Default : Yes
Forced : No


Якість:
Відео:
кодек:
розмір кадру: 1 480x1 080
бітрейт: 4 000 кб/с

Аудіо 1:
мова: українська
переклад: двоголосий закадровий
кодек: 2.0
бітрейт: 192 кб/с

Озвучення виконано: UAVoice
Озвучення: Віталій Прискурій та Людмила Швець
Монтаж та робота зі звуком: Віталій Прискурій
Обкладинки: Данило Земляний

Озвучено за підтримки онлайн кінотеатру UkrFresh.at.ua

SD HD 720

Джерело:

Особиста оцінка: 10 - без зайвих вагань рекомендую всім!
(Це ж класика дитинства!!!)


Авторський реліз (завантажувати можна без реєстрації)
 Трекер:    Зареєстрований   

Завантажити / скачати мультфільм українською



відео для новачків



 Зареєстрований:   2014-03-21 23:11
 Розмір:   2.61 GB 
 Оцінка мультсеріалу:   10/10 (Голосів: 32)
 Озвучено за підтримки онлайн кінотеатру UkrFresh.at.ua
   
bot 
робот


З нами з: 30.09.07
Востаннє: 26.05.05
Повідомлень: 27845

2014-03-04 20:22  
Тему перенесено з Анонси релізів до форуму Мультсеріали в HD


Віталій Прискурій

bohun 
VIP


З нами з: 21.03.09
Востаннє: 11.04.21
Повідомлень: 364

2014-03-04 22:06  
Дуже дякую! Ностальгія Happy Було б дуже класно мати в такій ж якості і діснеїівські роботи тих років - з Дональдом Даком, Гуфі, Мікі Маусом та іншими
Віталій Прискурій 
Свій


З нами з: 18.06.13
Востаннє: 03.04.21
Повідомлень: 143

2014-03-09 02:26  
Оновив до 8 серії!!!

Віталій Прискурій 
Свій


З нами з: 18.06.13
Востаннє: 03.04.21
Повідомлень: 143

2014-03-21 23:12  
Оновлено до 11 серії!!!

sirkon10 
Свій


З нами з: 13.05.12
Востаннє: 10.04.21
Повідомлень: 68

2014-03-22 13:03  
Було б непогано ще й роздавати його Wink (1)
-VJ- 
VIP


З нами з: 01.11.09
Востаннє: 10.04.21
Повідомлень: 804

2014-03-22 20:48  
Перейменуйте 10 серію - вибивається з ряду зайвим ноликом.
Віталій Прискурій 
Свій


З нами з: 18.06.13
Востаннє: 03.04.21
Повідомлень: 143

2014-03-29 00:58  
-VJ- написано:
Перейменуйте 10 серію - вибивається з ряду зайвим ноликом.

Ви про що?

-VJ- 
VIP


З нами з: 01.11.09
Востаннє: 10.04.21
Повідомлень: 804

2014-03-29 01:03  
Віталій Прискурій написано:
Ви про що?


09,010,11

Віталій Прискурій 
Свій


З нами з: 18.06.13
Востаннє: 03.04.21
Повідомлень: 143

2014-04-06 14:18  
-VJ-
З наступною серією виправлю.

Santiago_Grey 
Свій


З нами з: 17.08.09
Востаннє: 10.04.21
Повідомлень: 119

2014-09-07 15:50  
Наступних серій можна не чекати?
vishnu 
Свій


З нами з: 06.10.15
Востаннє: 08.04.21
Повідомлень: 124

2016-06-01 09:45  
Продовження передбачається, чи як?
olimpian1 
VIP


З нами з: 19.10.13
Востаннє: 09.04.21
Повідомлень: 293

2020-03-10 19:29  
Класика, як не крути) а наступні сезони планують озвучувати?
Ваш часовий пояс: GMT + 2 Години

Нова тема   Відповісти