Революція / Майдан (2014) 720p

Нові коментарі

Нова тема   Відповісти
Автор Повідомлення
ostipko 
Відео Гуртом - підтримка та поширення
Відео Гуртом - підтримка та поширення


З нами з: 23.02.12
Востаннє: 21.08.17
Повідомлень: 639

2014-03-03 20:56  
Революція / Майдан (2014) 720p

Революція / Майдан (2014) 720p


Жанр: драма
Країна: Україна

Режисер: народ України
Актори: народ України

Сюжет:
Невеличкий монтаж на тему революції та останніх подій в Україні.

У кліпі використана композиція: Немо - Ти мені пробач

Тривалість: 00:04:13
Якість:
Відео:
кодек:
розмір кадру: 1 280 х 720
бітрейт: 6 483 кб/с

Аудіо:
мова: українська
переклад: оригінал
кодек: 2.0
бітрейт: 192 кб/с
Info
General
Complete name : D:\Революція - Майдан (2014) 720p [Hurtom] [ostipko].avi
Format : AVI
Format/Info : Audio Video Interleave
File size : 203 MiB
Duration : 4mn 13s
Overall bit rate : 6 699 Kbps
Writing application : VirtualDubMod 1.5.10.2 (build 2540/release)
Writing library : VirtualDubMod build 2540/release
TCOD : 0
TCDO : 2538536000

Video
ID : 0
Format : MPEG-4 Visual
Format profile : Advanced [email protected]
Format settings, BVOP : 2
Format settings, QPel : No
Format settings, GMC : No warppoints
Format settings, Matrix : Default (H.263)
Muxing mode : Packed bitstream
Codec ID :
Codec ID/Hint :
Duration : 4mn 13s
Bit rate : 6 483 Kbps
Width : 1 280 pixels
Height : 720 pixels
Display aspect ratio : 16:9
Frame rate : 59.940 fps
Color space : YUV
Chroma subsampling : 4:2:0
Bit depth : 8 bits
Scan type : Progressive
Compression mode : Lossy
Bits/(Pixel*Frame) : 0.117
Stream size : 196 MiB (97%)
Writing library : 64

Audio
ID : 1
Format : AC-3
Format/Info : Audio Coding 3
Mode extension : CM (complete main)
Format settings, Endianness : Big
Codec ID : 2000
Duration : 4mn 13s
Bit rate mode : Constant
Bit rate : 192 Kbps
Channel(s) : 2 channels
Channel positions : Front: L R
Sampling rate : 48.0 KHz
Bit depth : 16 bits
Compression mode : Lossy
Stream size : 5.81 MiB (3%)
Alignment : Split accross interleaves
Interleave, duration : 17 ms (1.00 video frame)
Interleave, preload duration : 500 ms
Скріншоти


Джерело (монтаж): власне
Особиста оцінка: 10 - без зайвих вагань рекомендую всім!


Авторський реліз (завантажувати можна без реєстрації)
 Трекер:    Зареєстрований   

Завантажити / скачати український фільм



відео для новачків



 Зареєстрований:   2014-03-03 20:56
 Розмір:   203 MB 
 Оцінка:   9.3/10 (Голосів: 12)
 Фільм
   
Konfucius 
Управління
Управління


З нами з: 30.09.07
Востаннє: 21.08.17
Повідомлень: 4942

2014-03-04 22:31  
Бракує Info.

Додано через 1 хвилину 13 секунд:

Скріншоти мають бути у форматі .png

natashelka 
VIP


З нами з: 23.05.10
Востаннє: 21.08.17
Повідомлень: 453

2014-05-12 20:42  
Ті люди, які були на майдані, і ті нелюди, які вбивають жінок та дітей у Донецькій області, відрізають вуха та виколюють очі - це два принципово інших світа. Шановне товариство, мушу нагадати, що Хорватія, яка зазнала нападу Сербії після розпаду Югославії, відновила свою територіальну цілісність після двох воєн, зовсім так, як це може бути і у нашому випадку. Якщо куля в лоб, тоді куля в лоб. Не зрадьмо Небесну Сотню!
Ваш часовий пояс: GMT + 2 Години

Нова тема   Відповісти